Санта Клаус / The Santa Clause (Джон Пасквин / John Pasquin) [1994, фэнтези, драма, комедия, BDRip, HD (1080p, 720p)] MVO, Original + sub(rus, eng)

Страницы:  1

Ответить
Автор
Сообщение

Веселый Молодчик

RG Apple

Стаж: 6 лет 4 месяца

Сообщений: 594

Веселый Молодчик · 09-Ноя-12 22:02 (6 лет 1 месяц назад, ред. 09-Ноя-12 22:06)

Санта Клаус
The Santa Clause
Общая информация

Год выпуска: 1994
Страна: США
Жанр: фэнтези, драма, комедия
Продолжительность: 01:37:08



Создатели и актеры

Режиссеры: Джон Пасквин / John Pasquin
В ролях: Тим Аллен, Джадж Райнхолд, Венди Крюсон, Эрик Ллойд, Дэвид Крамхолц, Ларри Бранденбург, Мэри Гросс, Paige Tamada, Питер Бойл, Джудит Скотт
Сценарий: Леонардо Бенвенути, Стив Рудник
Продюссеры: Роберт Ф. Ньюмайер, Брайан Рейли, Джеффри Сильвер



Описание

В рождественскую ночь продавец игрушек Скотт Кэлвин случайно сталкивает со своей крыши странного старичка. К его невероятному удивлению, там же он обнаруживает припаркованного северного оленя.
Пока незнакомец беспомощно барахтается в сугробе, любопытный Скотт вскакивает в седло — и оказывается на Северном Полюсе, где главный эльф убеждает его занять место Санта Клауса, который в данный момент лежит возле дома Кэлвина и не может выполнять свои обязанности.
Он соглашается, но одно дело — напялить на себя костюм и плясать с детишками, и совсем другое — быть настоящим Сантой, когда у тебя на самом деле растет борода, пузо, и на глазах седеют волосы. Такого веселого Рождества у него еще не было…



Технические параметры

Исходник: Blu-ray
Формат: MP4 (контейнер m4v)
Перевод: Русский (многоголосый, закадровый)
Субтитры: Русские, Английские
Навигация по главам (с изображениями)
iTunes Meta Tags
Код:
Media Type: Movie HD 720p
Sort Name: The Santa Clause
XID: Apple:vendor_id:1994-2547
Content ID: 2547
ScreenWriters: Леонардо Бенвенути, Стив Рудник
Producers: Роберт Ф. Ньюмайер, Брайан Рейли, Джеффри Сильвер
Director: Джон Пасквин
Cast: Тим Аллен, Джадж Райнхолд, Венди Крюсон, Эрик Ллойд, Дэвид Крамхолц, Ларри Бранденбург, Мэри Гросс, Paige Tamada, Питер Бойл, Джудит Скотт
Rating: PG
Long Description: В рождественскую ночь продавец игрушек Скотт Кэлвин случайно сталкивает со своей крыши странного старичка. К его невероятному удивлению, там же он обнаруживает припаркованного северного оленя.
Пока незнакомец беспомощно барахтается в сугробе, любопытный Скотт вскакивает в седло — и оказывается на Северном Полюсе, где главный эльф убеждает его занять место Санта Клауса, который в данный момент лежит возле дома Кэлвина и не может выполнять свои обязанности.
Он соглашается, но одно дело — напялить на себя костюм и плясать с детишками, и совсем другое — быть настоящим Сантой, когда у тебя на самом деле растет борода, пузо, и на глазах седеют волосы. Такого веселого Рождества у него еще не было…
Description: В рождественскую ночь продавец игрушек Скотт Кэлвин случайно сталкивает со своей крыши странного старичка. К его невероятному удивлению, там же он обнаруживает припаркованного северного оленя.
Release Date: 1994-11-11T07:00:00Z
Genre: Comedy
Artist: John Pasquin
Name: The Santa Clause

HD 1080p

Видео: H.264, 1920 x 1040px (1,85:1), 23.976 fps, ~17500 kbps
Аудио 1: Русский (AAC Stereo 48 kHz, 168 kbps) MVO
Аудио 2: Английский (AAC Stereo 48 kHz, 165 kbps)
Аудио 3: Английский (Dolby Digital 5.1 48 kHz, 448 kbps)
Скриншоты HD 1080p
Media Info
Код:
Общее
Полное имя                               : D:\Media\ATV\The Santa Clause\The Santa Clause (1080p HD).m4v
Формат                                   : MPEG-4
Профиль формата                          : Base Media / Version 2
Идентификатор кодека                     : mp42
Размер файла                             : 12,3 Гбайт
Продолжительность                        : 1 ч. 37 м.
Режим общего битрейта                    : Переменный
Общий поток                              : 18,2 Мбит/сек
Название фильма                          : The Santa Clause
Исполнитель                              : John Pasquin
Жанр                                     : Comedy
Дата записи                              : UTC 1994-11-11 07:00:00
Дата кодирования                         : UTC 2012-11-08 17:58:51
Дата пометки                             : UTC 2012-11-09 16:04:26
Обложка                                  : Yes
sonm                                     : The Santa Clause
desc                                     : В рождественскую ночь продавец игрушек Скотт Кэлвин случайно сталкивает со своей крыши странного старичка. К его невероятному удивлению, там же он обнаруживает припаркованного северного оленя.
ldes                                     : В рождественскую ночь продавец игрушек Скотт Кэлвин случайно сталкивает со своей крыши странного старичка. К его невероятному удивлению, там же он обнаруживает припаркованного северного оленя. / Пока незнакомец беспомощно барахтается в сугробе, любопытный Скотт вскакивает в седло — и оказывается на Северном Полюсе, где главный эльф убеждает его занять место Санта Клауса, который в данный момент лежит возле дома Кэлвина и не может выполнять свои обязанности. / Он соглашается, но одно дело — напялить на себя костюм и плясать с детишками, и совсем другое — быть настоящим Сантой, когда у тебя на самом деле растет борода, пузо, и на глазах седеют волосы. Такого веселого Рождества у него еще не было…
hdvd                                     : 2
stik                                     : 9
rtng                                     : 0
cnID                                     : 2547
xid                                      : Apple:vendor_id:1994-2547
iTunEXTC                                 : mpaa|PG|200|
iTunMOVI                                 : <?xml version="1.0" encoding="UTF-8"?> / <!DOCTYPE plist PUBLIC "-//Apple//DTD PLIST 1.0//EN" "http://www.apple.com/DTDs/PropertyList-1.0.dtd"> / <plist version="1.0"> / <dict> /  <key>cast</key> /  <array> /   <dict> /    <key>name</key> /    <string>Тим Аллен</string> /   </dict> /   <dict> /    <key>name</key> /    <string>Джадж Райнхолд</string> /   </dict> /   <dict> /    <key>name</key> /    <string>Венди Крюсон</string> /   </dict> /   <dict> /    <key>name</key> /    <string>Эрик Ллойд</string> /   </dict> /   <dict> /    <key>name</key> /    <string>Дэвид Крамхолц</string> /   </dict> /   <dict> /    <key>name</key> /    <string>Ларри Бранденбург</string> /   </dict> /   <dict> /    <key>name</key> /    <string>Мэри Гросс</string> /   </dict> /   <dict> /    <key>name</key> /    <string>Paige Tamada</string> /   </dict> /   <dict> /    <key>name</key> /    <string>Питер Бойл</string> /   </dict> /   <dict> /    <key>name</key> /    <string>Джудит Скотт</string> /   </dict> /  </array> /  <key>directors</key> /  <array> /   <dict> /    <key>name</key> /    <string>Джон Пасквин</string> /   </dict> /  </array> /  <key>producers</key> /  <array> /   <dict> /    <key>name</key> /    <string>Роберт Ф. Ньюмайер</string> /   </dict> /   <dict> /    <key>name</key> /    <string>Брайан Рейли</string> /   </dict> /   <dict> /    <key>name</key> /    <string>Джеффри Сильвер</string> /   </dict> /  </array> /  <key>screenwriters</key> /  <array> /   <dict> /    <key>name</key> /    <string>Леонардо Бенвенути</string> /   </dict> /   <dict> /    <key>name</key> /    <string>Стив Рудник</string> /   </dict> /  </array> / </dict> / </plist>
Видео #1
Идентификатор                            : 1
Формат                                   : AVC
Формат/Информация                        : Advanced Video Codec
Профиль формата                          : [email protected]
Параметр CABAC формата                   : Да
Параметр ReFrames формата                : 4 кадра
Идентификатор кодека                     : avc1
Идентификатор кодека/Информация          : Advanced Video Coding
Продолжительность                        : 1 ч. 37 м.
Вид битрейта                             : Переменный
Битрейт                                  : 17,5 Мбит/сек
Ширина                                   : 1920 пикселей
Высота                                   : 1040 пикселей
Соотношение сторон                       : 1,85:1
Режим частоты кадров                     : Переменный
Частота кадров                           : 23,976 кадра/сек
Минимальная частота кадров               : 23,974 кадра/сек
Максимальная частота кадров              : 23,981 кадра/сек
Цветовое пространство                    : YUV
Субдискретизация насыщенности            : 4:2:0
Битовая глубина                          : 8 бит
Тип развёртки                            : Прогрессивная
Бит/(Пиксели*Кадры)                      : 0.366
Размер потока                            : 11,8 Гбайт (96%)
Библиотека кодирования                   : x264 core 120
Настройки программы                      : cabac=1 / ref=4 / deblock=1:-3:-3 / analyse=0x3:0x113 / me=umh / subme=9 / psy=1 / psy_rd=1.10:0.05 / mixed_ref=1 / me_range=32 / chroma_me=1 / trellis=2 / 8x8dct=1 / cqm=0 / deadzone=21,11 / fast_pskip=1 / chroma_qp_offset=-3 / threads=12 / sliced_threads=0 / nr=0 / decimate=1 / interlaced=0 / bluray_compat=0 / constrained_intra=0 / bframes=8 / b_pyramid=0 / b_adapt=1 / b_bias=0 / direct=1 / weightb=0 / open_gop=0 / weightp=0 / keyint=240 / keyint_min=24 / scenecut=40 / intra_refresh=0 / rc_lookahead=40 / rc=2pass / mbtree=1 / bitrate=17500 / ratetol=1.0 / qcomp=0.60 / qpmin=3 / qpmax=69 / qpstep=4 / cplxblur=20.0 / qblur=0.5 / vbv_maxrate=25000 / vbv_bufsize=25000 / nal_hrd=none / ip_ratio=1.40 / aq=1:1.05
Язык                                     : English
Дата кодирования                         : UTC 2012-11-08 17:58:51
Дата пометки                             : UTC 2012-11-09 06:15:29
Основные цвета                           : BT.709-5, BT.1361, IEC 61966-2-4, SMPTE RP177
Характеристики трансфера                 : BT.709-5, BT.1361
Коэффициенты матрицы                     : BT.709-5, BT.1361, IEC 61966-2-4 709, SMPTE RP177
Видео #2
Идентификатор                            : 8
Формат                                   : JPEG
Идентификатор кодека                     : jpeg
Продолжительность                        : 1 ч. 37 м.
Вид битрейта                             : Переменный
Битрейт                                  : 1076 бит/сек
Ширина                                   : 640 пикселей
Высота                                   : 346 пикселей
Соотношение сторон                       : 1,85:1
Режим частоты кадров                     : Переменный
Частота кадров                           : 0,003 кадр/сек
Минимальная частота кадров               : 0,002 кадр/сек
Максимальная частота кадров              : 0,009 кадр/сек
Цветовое пространство                    : YUV
Субдискретизация насыщенности            : 4:2:0
Битовая глубина                          : 8 бит
Метод сжатия                             : С потерями
Бит/(Пиксели*Кадры)                      : 1.620
Размер потока                            : 744 Кбайт (0%)
Язык                                     : English
Дата кодирования                         : UTC 2012-11-09 15:42:30
Дата пометки                             : UTC 2012-11-09 15:42:34
Аудио #1
Идентификатор                            : 2
Формат                                   : AAC
Формат/Информация                        : Advanced Audio Codec
Профиль формата                          : LC
Идентификатор кодека                     : 40
Продолжительность                        : 1 ч. 37 м.
Вид битрейта                             : Переменный
Битрейт                                  : 168 Кбит/сек
Максимальный битрейт                     : 242 Кбит/сек
Каналы                                   : 2 канала
Расположение каналов                     : Front: L R
Частота                                  : 48,0 КГц
Метод сжатия                             : С потерями
Задержка видео                           : -42 мс.
Размер потока                            : 117 Мбайт (1%)
Язык                                     : Russian
Дата кодирования                         : UTC 2012-11-09 15:37:28
Дата пометки                             : UTC 2012-11-09 15:38:59
Аудио #2
Идентификатор                            : 3
Формат                                   : AAC
Формат/Информация                        : Advanced Audio Codec
Профиль формата                          : LC
Идентификатор кодека                     : 40
Продолжительность                        : 1 ч. 37 м.
Вид битрейта                             : Переменный
Битрейт                                  : 165 Кбит/сек
Максимальный битрейт                     : 263 Кбит/сек
Каналы                                   : 2 канала
Расположение каналов                     : Front: L R
Частота                                  : 48,0 КГц
Метод сжатия                             : С потерями
Задержка видео                           : -42 мс.
Размер потока                            : 115 Мбайт (1%)
Язык                                     : English
Дата кодирования                         : UTC 2012-11-09 15:37:28
Дата пометки                             : UTC 2012-11-09 15:40:27
Аудио #3
Идентификатор                            : 4
Формат                                   : AC-3
Формат/Информация                        : Audio Coding 3
Расширение режима                        : CM (complete main)
Параметр Endianness формата              : Big
Идентификатор кодека                     : ac-3
Продолжительность                        : 1 ч. 37 м.
Вид битрейта                             : Постоянный
Битрейт                                  : 448 Кбит/сек
Каналы                                   : 6 каналов
Расположение каналов                     : Front: L C R, Side: L R, LFE
Частота                                  : 48,0 КГц
Битовая глубина                          : 16 бит
Метод сжатия                             : С потерями
Задержка видео                           : -42 мс.
Размер потока                            : 311 Мбайт (2%)
Язык                                     : English
Дата кодирования                         : UTC 2012-11-09 15:37:28
Дата пометки                             : UTC 2012-11-09 15:41:01
Текст #1
Идентификатор                            : 5
Формат                                   : Timed text
Режим смешивания                         : sbtl
Идентификатор кодека                     : tx3g
Продолжительность                        : 1 ч. 32 м.
Вид битрейта                             : Переменный
Битрейт                                  : 90 бит/сек
Задержка видео                           : -42 мс.
Размер потока                            : 61,3 Кбайт (0%)
Язык                                     : Russian
Дата кодирования                         : UTC 2012-11-09 15:37:28
Дата пометки                             : UTC 2012-11-09 15:41:01
Текст #2
Идентификатор                            : 6
Формат                                   : Timed text
Режим смешивания                         : sbtl
Идентификатор кодека                     : tx3g
Продолжительность                        : 1 ч. 36 м.
Вид битрейта                             : Переменный
Битрейт                                  : 79 бит/сек
Задержка видео                           : -42 мс.
Размер потока                            : 56,2 Кбайт (0%)
Язык                                     : English
Дата кодирования                         : UTC 2012-11-09 15:37:28
Дата пометки                             : UTC 2012-11-09 15:41:01
Текст #3
Идентификатор                            : 9
Формат                                   : Apple text
Идентификатор кодека                     : text
Продолжительность                        : 1 ч. 37 м.
Вид битрейта                             : Переменный
Битрейт                                  : 1 бит/сек
Задержка видео                           : -42 мс.
Размер потока                            : 399 байт (0%)
Дата кодирования                         : UTC 2012-11-09 15:46:18
Дата пометки                             : UTC 2012-11-09 15:46:18
Меню
00:00:00.000                             : Chapter 1
00:06:51.082                             : Chapter 2
00:12:48.043                             : Chapter 3
00:17:21.029                             : Chapter 4
00:26:58.032                             : Chapter 5
00:32:11.022                             : Chapter 6
00:39:43.088                             : Chapter 7
00:44:10.064                             : Chapter 8
00:49:39.010                             : Chapter 9
00:57:55.001                             : Chapter 10
01:04:55.060                             : Chapter 11
01:11:26.003                             : Chapter 12
01:13:13.022                             : Chapter 13
01:17:12.062                             : Chapter 14
01:20:17.027                             : Chapter 15
01:23:04.035                             : Chapter 16
01:33:01.040                             : Chapter 17
x264 Log
Код:
x264 [info]: frame I:1676  Avg QP:18.70  size:189150  PSNR Mean Y:46.81 U:48.14 V:50.10 Avg:47.40 Global:47.05
x264 [info]: frame P:86248 Avg QP:19.29  size:109127  PSNR Mean Y:44.92 U:46.71 V:49.06 Avg:45.65 Global:45.26
x264 [info]: frame B:51814 Avg QP:20.86  size: 56837  PSNR Mean Y:43.60 U:45.76 V:48.49 Avg:44.40 Global:44.01
x264 [info]: consecutive B-frames: 34.9% 42.8% 13.3%  7.5%  1.1%  0.0%  0.0%  0.0%  0.2%
x264 [info]: mb I  I16..4: 19.0% 71.4%  9.6%
x264 [info]: mb P  I16..4:  6.7% 15.1%  1.4%  P16..4: 36.7% 23.4% 10.9%  0.0%  0.0%    skip: 5.8%
x264 [info]: mb B  I16..4:  1.9%  2.3%  0.2%  B16..8: 40.3%  9.1%  2.3%  direct:17.5%  skip:26.4%  L0:39.7% L1:35.6% BI:24.7%
x264 [info]: 8x8 transform intra:64.3% inter:44.0%
x264 [info]: coded y,uvDC,uvAC intra: 91.3% 89.6% 81.3% inter: 52.3% 56.0% 29.7%
x264 [info]: i16 v,h,dc,p: 18%  7% 53% 23%
x264 [info]: i8 v,h,dc,ddl,ddr,vr,hd,vl,hu:  9%  7% 14% 10% 13% 12% 12% 12% 13%
x264 [info]: i4 v,h,dc,ddl,ddr,vr,hd,vl,hu: 10%  8% 19%  8% 11% 10% 11% 10% 14%
x264 [info]: i8c dc,h,v,p: 65% 11% 12% 12%
x264 [info]: ref P L0: 58.3% 19.8% 14.3%  7.6%
x264 [info]: ref B L0: 72.8% 16.7% 10.5%
x264 [info]: SSIM Mean Y:0.9753301 (16.078db)
x264 [info]: PSNR Mean Y:44.452 U:46.377 V:48.862 Avg:45.207 Global:44.773 kb/s:17396.36

HD 720p

Видео: H.264, 1280 x 692px (1,85:1), 23.976 fps, ~6700 kbps
Аудио 1: Русский (AAC Stereo 48 kHz, 168 kbps) MVO
Аудио 2: Английский (AAC Stereo 48 kHz, 165 kbps)
Аудио 3: Английский (Dolby Digital 5.1 48 kHz, 448 kbps)
Скриншоты HD 720p
Media Info
Код:
Общее
Полное имя                               : D:\Media\ATV\The Santa Clause\The Santa Clause (HD).m4v
Формат                                   : MPEG-4
Профиль формата                          : Base Media / Version 2
Идентификатор кодека                     : mp42
Размер файла                             : 5,08 Гбайт
Продолжительность                        : 1 ч. 37 м.
Режим общего битрейта                    : Переменный
Общий поток                              : 7482 Кбит/сек
Название фильма                          : The Santa Clause
Исполнитель                              : John Pasquin
Жанр                                     : Comedy
Дата записи                              : UTC 1994-11-11 07:00:00
Дата кодирования                         : UTC 2012-11-08 06:39:10
Дата пометки                             : UTC 2012-11-09 16:21:33
Обложка                                  : Yes
sonm                                     : The Santa Clause
desc                                     : В рождественскую ночь продавец игрушек Скотт Кэлвин случайно сталкивает со своей крыши странного старичка. К его невероятному удивлению, там же он обнаруживает припаркованного северного оленя.
ldes                                     : В рождественскую ночь продавец игрушек Скотт Кэлвин случайно сталкивает со своей крыши странного старичка. К его невероятному удивлению, там же он обнаруживает припаркованного северного оленя. / Пока незнакомец беспомощно барахтается в сугробе, любопытный Скотт вскакивает в седло — и оказывается на Северном Полюсе, где главный эльф убеждает его занять место Санта Клауса, который в данный момент лежит возле дома Кэлвина и не может выполнять свои обязанности. / Он соглашается, но одно дело — напялить на себя костюм и плясать с детишками, и совсем другое — быть настоящим Сантой, когда у тебя на самом деле растет борода, пузо, и на глазах седеют волосы. Такого веселого Рождества у него еще не было…
hdvd                                     : 1
stik                                     : 9
rtng                                     : 0
cnID                                     : 2547
xid                                      : Apple:vendor_id:1994-2547
iTunEXTC                                 : mpaa|PG|200|
iTunMOVI                                 : <?xml version="1.0" encoding="UTF-8"?> / <!DOCTYPE plist PUBLIC "-//Apple//DTD PLIST 1.0//EN" "http://www.apple.com/DTDs/PropertyList-1.0.dtd"> / <plist version="1.0"> / <dict> /  <key>cast</key> /  <array> /   <dict> /    <key>name</key> /    <string>Тим Аллен</string> /   </dict> /   <dict> /    <key>name</key> /    <string>Джадж Райнхолд</string> /   </dict> /   <dict> /    <key>name</key> /    <string>Венди Крюсон</string> /   </dict> /   <dict> /    <key>name</key> /    <string>Эрик Ллойд</string> /   </dict> /   <dict> /    <key>name</key> /    <string>Дэвид Крамхолц</string> /   </dict> /   <dict> /    <key>name</key> /    <string>Ларри Бранденбург</string> /   </dict> /   <dict> /    <key>name</key> /    <string>Мэри Гросс</string> /   </dict> /   <dict> /    <key>name</key> /    <string>Paige Tamada</string> /   </dict> /   <dict> /    <key>name</key> /    <string>Питер Бойл</string> /   </dict> /   <dict> /    <key>name</key> /    <string>Джудит Скотт</string> /   </dict> /  </array> /  <key>directors</key> /  <array> /   <dict> /    <key>name</key> /    <string>Джон Пасквин</string> /   </dict> /  </array> /  <key>producers</key> /  <array> /   <dict> /    <key>name</key> /    <string>Роберт Ф. Ньюмайер</string> /   </dict> /   <dict> /    <key>name</key> /    <string>Брайан Рейли</string> /   </dict> /   <dict> /    <key>name</key> /    <string>Джеффри Сильвер</string> /   </dict> /  </array> /  <key>screenwriters</key> /  <array> /   <dict> /    <key>name</key> /    <string>Леонардо Бенвенути</string> /   </dict> /   <dict> /    <key>name</key> /    <string>Стив Рудник</string> /   </dict> /  </array> / </dict> / </plist>
Видео #1
Идентификатор                            : 1
Формат                                   : AVC
Формат/Информация                        : Advanced Video Codec
Профиль формата                          : [email protected]
Параметр CABAC формата                   : Нет
Параметр ReFrames формата                : 3 кадра
Идентификатор кодека                     : avc1
Идентификатор кодека/Информация          : Advanced Video Coding
Продолжительность                        : 1 ч. 37 м.
Вид битрейта                             : Переменный
Битрейт                                  : 6700 Кбит/сек
Ширина                                   : 1280 пикселей
Высота                                   : 692 пикселя
Соотношение сторон                       : 1,85:1
Режим частоты кадров                     : Переменный
Частота кадров                           : 23,976 кадра/сек
Минимальная частота кадров               : 23,974 кадра/сек
Максимальная частота кадров              : 23,981 кадра/сек
Цветовое пространство                    : YUV
Субдискретизация насыщенности            : 4:2:0
Битовая глубина                          : 8 бит
Тип развёртки                            : Прогрессивная
Бит/(Пиксели*Кадры)                      : 0.315
Размер потока                            : 4,54 Гбайт (89%)
Библиотека кодирования                   : x264 core 120
Настройки программы                      : cabac=0 / ref=3 / deblock=1:-3:-3 / analyse=0x3:0x113 / me=umh / subme=9 / psy=1 / psy_rd=1.10:0.05 / mixed_ref=1 / me_range=32 / chroma_me=1 / trellis=0 / 8x8dct=1 / cqm=0 / deadzone=21,11 / fast_pskip=1 / chroma_qp_offset=-2 / threads=12 / sliced_threads=0 / nr=0 / decimate=1 / interlaced=0 / bluray_compat=0 / constrained_intra=0 / bframes=8 / b_pyramid=0 / b_adapt=1 / b_bias=0 / direct=1 / weightb=0 / open_gop=0 / weightp=0 / keyint=240 / keyint_min=24 / scenecut=40 / intra_refresh=0 / rc_lookahead=40 / rc=2pass / mbtree=1 / bitrate=6700 / ratetol=1.0 / qcomp=0.60 / qpmin=3 / qpmax=69 / qpstep=4 / cplxblur=20.0 / qblur=0.5 / vbv_maxrate=9500 / vbv_bufsize=9500 / nal_hrd=none / ip_ratio=1.40 / aq=1:0.95
Язык                                     : English
Дата кодирования                         : UTC 2012-11-08 06:39:10
Дата пометки                             : UTC 2012-11-08 09:18:16
Основные цвета                           : BT.709-5, BT.1361, IEC 61966-2-4, SMPTE RP177
Характеристики трансфера                 : BT.709-5, BT.1361
Коэффициенты матрицы                     : BT.709-5, BT.1361, IEC 61966-2-4 709, SMPTE RP177
Видео #2
Идентификатор                            : 8
Формат                                   : JPEG
Идентификатор кодека                     : jpeg
Продолжительность                        : 1 ч. 37 м.
Вид битрейта                             : Переменный
Битрейт                                  : 1081 бит/сек
Ширина                                   : 640 пикселей
Высота                                   : 346 пикселей
Соотношение сторон                       : 1,85:1
Режим частоты кадров                     : Переменный
Частота кадров                           : 0,003 кадр/сек
Минимальная частота кадров               : 0,002 кадр/сек
Максимальная частота кадров              : 0,009 кадр/сек
Цветовое пространство                    : YUV
Субдискретизация насыщенности            : 4:2:0
Битовая глубина                          : 8 бит
Метод сжатия                             : С потерями
Бит/(Пиксели*Кадры)                      : 1.627
Размер потока                            : 748 Кбайт (0%)
Язык                                     : English
Дата кодирования                         : UTC 2012-11-09 16:20:24
Дата пометки                             : UTC 2012-11-09 16:20:26
Аудио #1
Идентификатор                            : 2
Формат                                   : AAC
Формат/Информация                        : Advanced Audio Codec
Профиль формата                          : LC
Идентификатор кодека                     : 40
Продолжительность                        : 1 ч. 37 м.
Вид битрейта                             : Переменный
Битрейт                                  : 168 Кбит/сек
Максимальный битрейт                     : 242 Кбит/сек
Каналы                                   : 2 канала
Расположение каналов                     : Front: L R
Частота                                  : 48,0 КГц
Метод сжатия                             : С потерями
Задержка видео                           : -42 мс.
Размер потока                            : 117 Мбайт (2%)
Язык                                     : Russian
Дата кодирования                         : UTC 2012-11-09 16:17:21
Дата пометки                             : UTC 2012-11-09 16:18:32
Аудио #2
Идентификатор                            : 3
Формат                                   : AAC
Формат/Информация                        : Advanced Audio Codec
Профиль формата                          : LC
Идентификатор кодека                     : 40
Продолжительность                        : 1 ч. 37 м.
Вид битрейта                             : Переменный
Битрейт                                  : 165 Кбит/сек
Максимальный битрейт                     : 263 Кбит/сек
Каналы                                   : 2 канала
Расположение каналов                     : Front: L R
Частота                                  : 48,0 КГц
Метод сжатия                             : С потерями
Задержка видео                           : -42 мс.
Размер потока                            : 115 Мбайт (2%)
Язык                                     : English
Дата кодирования                         : UTC 2012-11-09 16:17:21
Дата пометки                             : UTC 2012-11-09 16:19:31
Аудио #3
Идентификатор                            : 4
Формат                                   : AC-3
Формат/Информация                        : Audio Coding 3
Расширение режима                        : CM (complete main)
Параметр Endianness формата              : Big
Идентификатор кодека                     : ac-3
Продолжительность                        : 1 ч. 37 м.
Вид битрейта                             : Постоянный
Битрейт                                  : 448 Кбит/сек
Каналы                                   : 6 каналов
Расположение каналов                     : Front: L C R, Side: L R, LFE
Частота                                  : 48,0 КГц
Битовая глубина                          : 16 бит
Метод сжатия                             : С потерями
Задержка видео                           : -42 мс.
Размер потока                            : 311 Мбайт (6%)
Язык                                     : English
Дата кодирования                         : UTC 2012-11-09 16:17:21
Дата пометки                             : UTC 2012-11-09 16:19:50
Текст #1
Идентификатор                            : 5
Формат                                   : Timed text
Режим смешивания                         : sbtl
Идентификатор кодека                     : tx3g
Продолжительность                        : 1 ч. 32 м.
Вид битрейта                             : Переменный
Битрейт                                  : 90 бит/сек
Задержка видео                           : -42 мс.
Размер потока                            : 61,3 Кбайт (0%)
Язык                                     : Russian
Дата кодирования                         : UTC 2012-11-09 16:17:21
Дата пометки                             : UTC 2012-11-09 16:19:51
Текст #2
Идентификатор                            : 6
Формат                                   : Timed text
Режим смешивания                         : sbtl
Идентификатор кодека                     : tx3g
Продолжительность                        : 1 ч. 36 м.
Вид битрейта                             : Переменный
Битрейт                                  : 79 бит/сек
Задержка видео                           : -42 мс.
Размер потока                            : 56,2 Кбайт (0%)
Язык                                     : English
Дата кодирования                         : UTC 2012-11-09 16:17:21
Дата пометки                             : UTC 2012-11-09 16:19:51
Текст #3
Идентификатор                            : 9
Формат                                   : Apple text
Идентификатор кодека                     : text
Продолжительность                        : 1 ч. 37 м.
Вид битрейта                             : Переменный
Битрейт                                  : 1 бит/сек
Задержка видео                           : -42 мс.
Размер потока                            : 399 байт (0%)
Дата кодирования                         : UTC 2012-11-09 16:21:05
Дата пометки                             : UTC 2012-11-09 16:21:05
Меню
00:00:00.000                             : Chapter 1
00:06:51.082                             : Chapter 2
00:12:48.043                             : Chapter 3
00:17:21.029                             : Chapter 4
00:26:58.032                             : Chapter 5
00:32:11.022                             : Chapter 6
00:39:43.088                             : Chapter 7
00:44:10.064                             : Chapter 8
00:49:39.010                             : Chapter 9
00:57:55.001                             : Chapter 10
01:04:55.060                             : Chapter 11
01:11:26.003                             : Chapter 12
01:13:13.022                             : Chapter 13
01:17:12.062                             : Chapter 14
01:20:17.027                             : Chapter 15
01:23:04.035                             : Chapter 16
01:33:01.040                             : Chapter 17
x264 Log
Код:
x264 [info]: frame I:1594  Avg QP:17.99  size:122505  PSNR Mean Y:45.76 U:47.26 V:49.07 Avg:46.38 Global:45.98
x264 [info]: frame P:70680 Avg QP:18.96  size: 48125  PSNR Mean Y:43.96 U:45.78 V:48.17 Avg:44.69 Global:44.19
x264 [info]: frame B:67464 Avg QP:21.04  size: 18940  PSNR Mean Y:42.72 U:44.81 V:47.68 Avg:43.53 Global:43.12
x264 [info]: consecutive B-frames: 20.3% 40.5% 19.2% 16.5%  3.3%  0.1%  0.0%  0.0%  0.2%
x264 [info]: mb I  I16..4:  7.5% 60.9% 31.7%
x264 [info]: mb P  I16..4:  0.8%  4.6%  2.1%  P16..4: 40.4% 29.4% 13.2%  0.0%  0.0%    skip: 9.5%
x264 [info]: mb B  I16..4:  0.1%  0.7%  0.4%  B16..8: 48.8% 11.0%  2.4%  direct: 6.2%  skip:30.4%  L0:41.8% L1:47.9% BI:10.3%
x264 [info]: 8x8 transform intra:61.1% inter:45.4%
x264 [info]: coded y,uvDC,uvAC intra: 83.8% 85.8% 73.7% inter: 35.9% 34.5% 17.5%
x264 [info]: i16 v,h,dc,p: 63% 13%  8% 16%
x264 [info]: i8 v,h,dc,ddl,ddr,vr,hd,vl,hu: 12%  7%  6% 11% 15% 15% 14% 11% 10%
x264 [info]: i4 v,h,dc,ddl,ddr,vr,hd,vl,hu: 23%  5%  4% 10% 14% 14% 12% 10%  8%
x264 [info]: i8c dc,h,v,p: 56% 15% 18% 11%
x264 [info]: ref P L0: 64.2% 20.5% 15.3%
x264 [info]: ref B L0: 74.3% 25.7%
x264 [info]: SSIM Mean Y:0.9699303 (15.219db)
x264 [info]: PSNR Mean Y:43.384 U:45.329 V:47.941 Avg:44.149 Global:43.653 kb/s:6690.86
SD версия фильма
Download
Для скачивания .torrent файлов необходима регистрация
Сайт не распространяет и не хранит электронные версии произведений, а лишь предоставляет доступ к создаваемому пользователями каталогу ссылок на торрент-файлы, которые содержат только списки хеш-сумм
[Профиль]  [ЛС] 

yv_apple

Moderator

Стаж: 8 лет 6 месяцев

Сообщений: 5565

yv_apple · 09-Ноя-12 22:45 (спустя 43 мин.)

[Цитировать] 

Спасибо.
[Профиль]  [ЛС] 

DedM0r0z

Стаж: 11 лет 11 месяцев

Сообщений: 56

DedM0r0z · 15-Ноя-12 02:50 (спустя 5 дней)

[Цитировать] 

дайте огня!!! 2 процента осталось
[Профиль]  [ЛС] 

Вeлec

Стаж: 9 лет 11 месяцев

Сообщений: 176

Вeлec · 02-Янв-15 10:04 (спустя 2 года 1 месяц)

[Цитировать] 

На компе-то попрет?
[Профиль]  [ЛС] 

beelin4eg

Стаж: 11 лет 1 месяц

Сообщений: 9

beelin4eg · 20-Ноя-18 15:40 (спустя 3 года 10 месяцев)

[Цитировать] 

Парни, раздайте фильмец
[Профиль]  [ЛС] 
 
Ответить
Loading...
Error