Что? Где? Когда? | Осенняя серия игр 2018 | Игра 1-5 [2018, Интеллектуальная игра, HDTVRip 720p]

Страницы:  1

Ответить
Автор
Сообщение

Nitey

Стаж: 11 лет 2 месяца

Сообщений: 2649

Nitey · 18-Сен-18 20:32 (2 месяца 1 день назад, ред. 29-Окт-18 20:11)


Что? Где? Когда?

Осенняя серия игр 2018
Игра 1-5

Год выпуска: 2018
Страна: Россия
Жанр: Телеигра
Телеканал: Первый
Язык: русский
Продолжительность: 00:53:59, 01:06:02, 01:12:43, 01:04:01, 01:13:50
Описание: Интеллектуальная викторина, наиболее распространённая в русскоязычной среде. Была создана в 1975 г. телеведущим Владимиром Ворошиловым. Игра очень быстро стала настолько популярной, что кроме оригинальной телевизионной версии появилась спортивная версия игры. Сущность игры заключается в противостоянии команды Знатоков (игровой команды из шести человек) команде Телезрителей. Знатоки должны за одну минуту при помощи мозгового штурма найти ответ на вопрос, присланный телезрителем. Как правило, игрокам задаются вопросы, ответить на которые можно с помощью общих знаний и логики. За каждый правильный ответ команда Знатоков получает одно очко, в случае неверного ответа очко начисляется команде Телезрителей. Игра ведётся до шести очков.
Качество: HDTVRip 720p (за исходник спасибо Doc66)
Формат: MKV
Видео: H.264, 1280x720, 3765-4118 kbps, 25 fps
Аудио: Russian, AC3, 2ch, 48 kHz, 192 kbps
Игра 1, 16.09.2018
Команда Игоря Алексеева
Игра 2, 23.09.2018
Команда Виктора Сиднева
Игра 3, 30.09.2018
Команда Алеся Мухина
Игра 4, 07.10.2018
Команда Константина Рудера
Игра 5, 28.10.2018
Команда Алёны Повышевой

x264 log, MediaInfo, Сравнение с исходником
x264 log, Игра 1
x264 [info]: frame I:479 Avg QP:18.05 size: 90510
x264 [info]: frame P:20647 Avg QP:19.24 size: 40443
x264 [info]: frame B:59850 Avg QP:22.06 size: 11343
x264 [info]: consecutive B-frames: 1.5% 3.2% 4.0% 76.3% 4.0% 9.1% 0.8% 1.1% 0.1%
x264 [info]: mb I I16..4: 4.1% 74.7% 21.2%
x264 [info]: mb P I16..4: 2.4% 17.1% 2.6% P16..4: 31.6% 34.3% 9.3% 1.1% 0.1% skip: 1.5%
x264 [info]: mb B I16..4: 0.6% 1.5% 0.2% B16..8: 33.8% 21.6% 3.1% direct: 6.2% skip:33.0% L0:38.3% L1:46.3% BI:15.4%
x264 [info]: 8x8 transform intra:74.6% inter:61.9%
x264 [info]: coded y,uvDC,uvAC intra: 64.7% 89.0% 64.2% inter: 17.8% 27.2% 5.2%
x264 [info]: i16 v,h,dc,p: 29% 17% 9% 45%
x264 [info]: i8 v,h,dc,ddl,ddr,vr,hd,vl,hu: 10% 8% 14% 9% 11% 12% 11% 12% 14%
x264 [info]: i4 v,h,dc,ddl,ddr,vr,hd,vl,hu: 15% 12% 11% 7% 12% 11% 10% 9% 12%
x264 [info]: i8c dc,h,v,p: 38% 22% 22% 18%
x264 [info]: Weighted P-Frames: Y:4.1% UV:2.8%
x264 [info]: ref P L0: 54.5% 10.4% 19.9% 5.7% 5.4% 4.0% 0.1% 0.0%
x264 [info]: ref B L0: 89.0% 7.4% 2.2% 1.0% 0.4%
x264 [info]: ref B L1: 97.8% 2.2%
x264 [info]: kb/s:3846.30
x264 [info]: encoded 80976 frames, 4.63 fps, 3846.30 kb/s, duration 4:51:46.90
MediaInfo, Игра 1
Format : Matroska
Format version : Version 4 / Version 2
File size : 1.52 GiB
Duration : 53mn 59s
Overall bit rate : 4 040 Kbps
Encoded date : UTC 2018-09-24 20:35:40
Writing application : mkvmerge v8.3.0 ('Over the Horizon') 64bit
Writing library : libebml v1.3.1 + libmatroska v1.4.2
DURATION : 00:53:59.072000000
NUMBER_OF_FRAMES : 101221
NUMBER_OF_BYTES : 77737728
_STATISTICS_WRITING_APP : mkvmerge v8.3.0 ('Over the Horizon') 64bit
_STATISTICS_WRITING_DATE_UTC : 2018-09-24 20:35:40
_STATISTICS_TAGS : BPS DURATION NUMBER_OF_FRAMES NUMBER_OF_BYTES
Video
ID : 1
Format : AVC
Format/Info : Advanced Video Codec
Format profile : [email protected]
Format settings, CABAC : Yes
Format settings, ReFrames : 6 frames
Codec ID : V_MPEG4/ISO/AVC
Duration : 53mn 59s
Bit rate : 3 768 Kbps
Width : 1 280 pixels
Height : 720 pixels
Display aspect ratio : 16:9
Frame rate mode : Constant
Frame rate : 25.000 fps
Color space : YUV
Chroma subsampling : 4:2:0
Bit depth : 8 bits
Scan type : Progressive
Bits/(Pixel*Frame) : 0.164
Stream size : 1.42 GiB (93%)
Writing library : x264 core 152 r2851kMod ba24899
Encoding settings : cabac=1 / ref=6 / deblock=1:-1:0 / analyse=0x3:0x133 / me=umh / subme=11 / psy=1 / fade_compensate=0.00 / psy_rd=1.00:0.03 / mixed_ref=1 / me_range=32 / chroma_me=1 / trellis=2 / 8x8dct=1 / cqm=0 / deadzone=21,11 / fast_pskip=0 / chroma_qp_offset=-3 / threads=6 / lookahead_threads=1 / sliced_threads=0 / nr=0 / decimate=1 / interlaced=0 / bluray_compat=0 / constrained_intra=0 / bframes=8 / b_pyramid=2 / b_adapt=2 / b_bias=0 / direct=1 / weightb=1 / open_gop=0 / weightp=2 / keyint=250 / keyint_min=25 / scenecut=40 / intra_refresh=0 / rc_lookahead=40 / rc=crf / mbtree=0 / crf=20.0000 / qcomp=0.65 / qpmin=0 / qpmax=69 / qpstep=4 / vbv_maxrate=62500 / vbv_bufsize=78125 / crf_max=0.0 / nal_hrd=none / filler=0 / ip_ratio=1.40 / pb_ratio=1.30 / aq=3:1.00
Language : Russian
Default : Yes
Forced : No
DURATION : 00:53:59.040000000
NUMBER_OF_FRAMES : 80976
NUMBER_OF_BYTES : 1557289408
_STATISTICS_WRITING_APP : mkvmerge v8.3.0 ('Over the Horizon') 64bit
_STATISTICS_WRITING_DATE_UTC : 2018-09-24 20:35:40
_STATISTICS_TAGS : BPS DURATION NUMBER_OF_FRAMES NUMBER_OF_BYTES
Matrix coefficients : BT.709
Audio
ID : 2
Format : AC-3
Format/Info : Audio Coding 3
Mode extension : CM (complete main)
Format settings, Endianness : Big
Codec ID : A_AC3
Duration : 53mn 59s
Bit rate mode : Constant
Bit rate : 192 Kbps
Channel(s) : 2 channels
Channel positions : Front: L R
Sampling rate : 48.0 KHz
Bit depth : 16 bits
Compression mode : Lossy
Stream size : 74.1 MiB (5%)
Language : Russian
Default : Yes
Forced : No
Сравнение с исходником, Игра 1
Исходник........................................Рип




Download
Для скачивания .torrent файлов необходима регистрация
Сайт не распространяет и не хранит электронные версии произведений, а лишь предоставляет доступ к создаваемому пользователями каталогу ссылок на торрент-файлы, которые содержат только списки хеш-сумм
[Профиль]  [ЛС] 

lokkirus

Стаж: 11 лет

Сообщений: 12

lokkirus · 24-Сен-18 15:42 (спустя 5 дней)

[Цитировать] 

Когда вторая будет?
[Профиль]  [ЛС] 

Nitey

Стаж: 11 лет 2 месяца

Сообщений: 2649

Nitey · 02-Окт-18 13:23 (спустя 7 дней)

[Цитировать] 

Добавлена Игра 3, заменена Игра 2 на рип с нового исходника.
[Профиль]  [ЛС] 

prodigy

Стаж: 13 лет 9 месяцев

Сообщений: 26


prodigy · 08-Окт-18 01:09 (спустя 5 дней)

[Цитировать] 

а как так получается, что по телевизору сегодня игра, что появилась здесь в прошлую субботу?
[Профиль]  [ЛС] 

Doc66

RG Русские сериалы

Стаж: 12 лет 2 месяца

Сообщений: 3445

Doc66 · 08-Окт-18 12:20 (спустя 11 часов, ред. 08-Окт-18 12:20)

[Цитировать] 

prodigy
Вы смотрите Первый Международный. Там игры транслируют с опозданием на неделю. Расписание игр можно посмотреть на сайте игры.
[Профиль]  [ЛС] 

borisws

Стаж: 6 лет 9 месяцев

Сообщений: 31


borisws · 17-Окт-18 17:31 (спустя 9 дней)

[Цитировать] 

а когда финальная игра-то?
[Профиль]  [ЛС] 

Nitey

Стаж: 11 лет 2 месяца

Сообщений: 2649

Nitey · 17-Окт-18 22:22 (спустя 4 часа)

[Цитировать] 

borisws писал(а):
76151722а когда финальная игра-то?
28 октября.
[Профиль]  [ЛС] 
 
Ответить
Loading...
Error