К 80-летию Владимира Высоцкого. Фильм Александра Рогаткина [2018, Документальный, HDTV 1080i]

Страницы:  1

Ответить
Автор
Сообщение

kuzmichm2196

RG Документалисты

Стаж: 8 лет 9 месяцев

Сообщений: 2176

kuzmichm2196 · 27-Янв-18 17:08 (9 месяцев назад, ред. 27-Янв-18 17:10)

К 80-летию Владимира Высоцкого. Фильм Александра Рогаткина
Год выпуска: 2018
Страна: Россия
Жанр: Документальный
Продолжительность: 00:57:07
Перевод: Не требуется
Описание: 25 января Владимиру Высоцкому исполнилось бы 80 лет. Представить его стариком невозможно! Кем он был - борцом, бунтарем, антисоветчиком или гением, встроенным в систему? Бардом или по-настоящему большим поэтом уровня Маяковского, Есенина, Бродского?
Тип релиза: HDTV 1080i
Контейнер: TS
Видео: H264; 1920x1080 (16:9); 25.000 fps; ~7 154 kb/s
Аудио: MPEG Audio 48000Hz stereo 192 Кбит/сек
MediaInfo
General
ID : 1 (0x1)
Complete name : E:\Behold TV 222\К 80-летию Владимира Высоцкого. Фильм Александра Рогаткина 2018.01.26.ts
Format : MPEG-TS
File size : 3.08 GiB
Duration : 57 min 7 s
Overall bit rate mode : Variable
Overall bit rate : 7 730 kb/s
Video
ID : 2292 (0x8F4)
Menu ID : 2291 (0x8F3)
Format : AVC
Format/Info : Advanced Video Codec
Format profile : [email protected]
Format settings, CABAC : Yes
Format settings, ReFrames : 4 frames
Codec ID : 27
Duration : 57 min 7 s
Bit rate : 7 154 kb/s
Width : 1 920 pixels
Height : 1 080 pixels
Display aspect ratio : 16:9
Frame rate : 25.000 FPS
Standard : Component
Color space : YUV
Chroma subsampling : 4:2:0
Bit depth : 8 bits
Scan type : Interlaced
Scan type, store method : Separated fields
Scan order : Top Field First
Bits/(Pixel*Frame) : 0.138
Stream size : 2.85 GiB (93%)
Color range : Limited
Color primaries : BT.709
Transfer characteristics : BT.709
Matrix coefficients : BT.709
Audio
ID : 2295 (0x8F7)
Menu ID : 2291 (0x8F3)
Format : MPEG Audio
Format version : Version 1
Format profile : Layer 2
Codec ID : 3
Duration : 57 min 7 s
Bit rate mode : Constant
Bit rate : 192 kb/s
Channel(s) : 2 channels
Sampling rate : 48.0 kHz
Compression mode : Lossy
Stream size : 78.4 MiB (2%)
Language : Russian
Скриншоты
Download
Для скачивания .torrent файлов необходима регистрация
Сайт не распространяет и не хранит электронные версии произведений, а лишь предоставляет доступ к создаваемому пользователями каталогу ссылок на торрент-файлы, которые содержат только списки хеш-сумм
[Профиль]  [ЛС] 

ALEXUKL

Стаж: 10 лет 7 месяцев

Сообщений: 74


ALEXUKL · 28-Янв-18 23:46 (спустя 1 день 6 часов)

[Цитировать] 

Описание хромает: "или по-настоящему большим поэтом уровня Маяковского, Есенина..." - Высоцкий в своих поздних произведениях по-настоящему большой поэт. Читайте тексты его глазами и вы увидите.
[Профиль]  [ЛС] 

alldir

Стаж: 9 лет 4 месяца

Сообщений: 41

alldir · 07-Июл-18 17:27 (спустя 5 месяцев 9 дней)

[Цитировать] 

Не называйте Высоцкого бардом, это мерзкое слово, опускающее его талант до уровня художественной самодеятельности. И сам Высоцкий это слово не любил и просил его бардом никогда не называть...
Люди берущиеся снимать фильмы о Высоцком могли бы это и знать. Посмотрев хотя бы несколько интервью с ним.
Очередной коммерческий проект очередного бездаря...
[Профиль]  [ЛС] 
 
Ответить
Loading...
Error