В огонь - за родину! (Назгуль Абутурапова) [2015, Казахстан, документальный, DVB] Original (Rus)

Страницы:  1

Ответить
Автор
Сообщение

Злобин Глеб

Стаж: 4 года 5 месяцев

Сообщений: 1332

Злобин Глеб · 19-Мар-18 12:30 (7 месяцев назад)

В огонь - за родину! Страна: Казахстан
Жанр: документальный
Продолжительность: 00:57:49
Год выпуска: 2015
Перевод: не требуется
Субтитры: отсутствуют
Режиссер: Назгуль Абутурапова
Описание: Картина состоит из двух частей. Первая часть фильма - о воинах-казахстанцах, павших в битве под Ржевом, в «харьковском котле», а также о Героях Великой Отечественной войны Бауыржане Момышулы и Касыме Кайсенове.
Вторая часть - о героях Сталинградской битвы, о восстановлении исторической справедливости и признании героизма Талгата Бегельдинова, Сагадата Нурмаганбетова, Рахимжана Кошкарбаева и многих тысяч рядовых солдат, сложивших головы на полях битв Великой Отечественной войны, сообщили в ТРК Президента РК.

Семпл: https://www.sendspace.com/file/kqtcoi
Качество: DVB [Ел Арна] (эфир 18.03.2018)
Формат: MKV
Видео: AVC, 720х576 (16:9) @ 1047х576, 25 fps, ~1956 kbps, 0.189 bit/pixel
Аудио: [RUS] 48 kHz, MP2, 2 ch, 192 kbps
Mediainfo
Общее
Уникальный идентификатор : 9764565998952081944581324733606121920 (0x7589645F7E7A654D8265A5EFF1DD1C0)
Полное имя : F:\В огонь - за родину! (2015) [Ел Арна].mkv
Формат : Matroska
Версия формата : Version 2
Размер файла : 907 Мбайт
Продолжительность : 57 м. 49 с.
Общий поток : 2192 Кбит/сек
Программа кодирования : Lavf54.63.104
Библиотека кодирования : Lavf54.63.104
Видео
Идентификатор : 1
Формат : AVC
Формат/Информация : Advanced Video Codec
Профиль формата : [email protected]
Параметр CABAC формата : Да
Параметр RefFrames формата : 3 кадра
Параметр GOP формата : M=4, N=32
Идентификатор кодека : V_MPEG4/ISO/AVC
Продолжительность : 57 м. 49 с.
Битрейт : 1956 Кбит/сек
Ширина : 720 пикселей
Высота : 576 пикселей
Соотношение сторон : 16:9
Соотношение сторон в оригинале : 16:9
Режим частоты кадров : Постоянный
Частота кадров : 25,000 кадров/сек
Стандарт вещания : Component
Цветовое пространство : YUV
Субдискретизация насыщенности : 4:2:0
Битовая глубина : 8 бит
Тип развёртки : Чересстрочная
Метод сохранения типа развёртки : Раздельные поля
Порядок развёртки : Верхнее поле первое
Бит/(Пиксели*Кадры) : 0.189
Размер потока : 809 Мбайт (89%)
Default : Нет
Forced : Нет
Цветовой диапазон : Limited
Основные цвета : BT.601 PAL
Характеристики трансфера : BT.470 System B, BT.470 System G
Коэффициенты матрицы : BT.470 System B, BT.470 System G
Аудио
Идентификатор : 2
Формат : MPEG Audio
Версия формата : Version 1
Профиль формата : Layer 2
Идентификатор кодека : A_MPEG/L2
Идентификатор кодека/Подсказка : MP2
Продолжительность : 57 м. 49 с.
Вид битрейта : Постоянный
Битрейт : 192 Кбит/сек
Каналы : 2 канала
Частота : 48,0 КГц
Метод сжатия : С потерями
Размер потока : 79,4 Мбайт (9%)
Язык : English
Default : Да
Forced : Нет
Скриншоты
Download
Для скачивания .torrent файлов необходима регистрация
Сайт не распространяет и не хранит электронные версии произведений, а лишь предоставляет доступ к создаваемому пользователями каталогу ссылок на торрент-файлы, которые содержат только списки хеш-сумм
[Профиль]  [ЛС] 

bot · 14-Апр-18 06:13 (спустя 25 дней)

Тема была перенесена из форума Документальные фильмы и телепередачи в форум [Док] Вторая мировая война
SergeyJD
 
 
Ответить
Loading...
Error