Фиксики: Большой секрет (Васико Бедошвили, Андрей Колпин, Иван Пшонкин) [2017, Россия, мультфильм, приключения, комедия, музыка, WEB-DLRip]

Страницы:  1

Ответить
Автор
Сообщение

порошков

Помощник модератора

Стаж: 9 лет 10 месяцев

Сообщений: 11868

порошков · 31-Дек-17 09:55 (11 месяцев назад, ред. 31-Дек-17 10:19)

Фиксики: Большой секрет
Страна: Россия
Жанр: мультфильм, приключения, комедия, музыка
Год выпуска: 2017
Продолжительность: 01:17:57
Субтитры: нет
Режиссер: Васико Бедошвили, Андрей Колпин, Иван Пшонкин
В ролях: Дмитрий Назаров, Александр Пушной, Лариса Брохман, Диомид Виноградов, Дарья Колбасеева, Феликс Головнин, Яков Васильев, Инна Королёва, Пётр Иващенко, Варвара Обидор
Описание: Фиксики — маленькие добрые человечки, которые живут в машинах и приборах и заботятся о технике. Но люди не должны знать о фиксиках! Это БОЛЬШОЙ СЕКРЕТ! Фиксики находят способ перемещаться по электрическим проводам. Теперь они смогут мгновенно починить любой прибор, где бы он ни был! И тут недоработанное изобретение попадает к озорнику Файеру. В руках маленького фиксика оно становится причиной больших проблем. Искры, взрывы, разрушения, взбесившаяся техника — город на грани катастрофы! Фиксикам почти чудом удаётся её предотвратить. Но как сохранить их БОЛЬШОЙ СЕКРЕТ?!
Качество видео: WEB-DLRip
Формат видео: AVI
Видео: 720x384 (1.88:1), 24.000 fps, XviD build 73 ~2280 kbps avg, 0.34 bit/pixel
Аудио: 48 kHz, AC3 Dolby Digital, 3/2 (L,C,R,l,r) + LFE ch, ~384 kbps
Сэмпл
MediaInfo

Код:
Format                      : AVI
Format/Info                 : Audio Video Interleave
File size                   : 1.46 GiB
Duration                    : 1 h 17 min
Overall bit rate            : 2 674 kb/s
Writing application         : VirtualDubMod 1.5.10.3 | www.virtualdub-fr.org || (build 2550/release)
Writing library             : VirtualDubMod build 2550/release
Video
ID                          : 0
Format                      : MPEG-4 Visual
Format profile              : Advanced [email protected]
Format settings             : BVOP1 / Custom Matrix
Format settings, BVOP       : 1
Format settings, QPel       : No
Format settings, GMC        : No warppoints
Format settings, Matrix     : Custom
Codec ID                    : XVID
Codec ID/Hint               : XviD
Duration                    : 1 h 17 min
Bit rate                    : 2 280 kb/s
Width                       : 720 pixels
Height                      : 384 pixels
Display aspect ratio        : 1.85:1
Frame rate                  : 24.000 FPS
Color space                 : YUV
Chroma subsampling          : 4:2:0
Bit depth                   : 8 bits
Scan type                   : Progressive
Compression mode            : Lossy
Bits/(Pixel*Frame)          : 0.344
Stream size                 : 1.24 GiB (85%)
Writing library             : XviD 73
Audio
ID                          : 1
Format                      : AC-3
Format/Info                 : Audio Coding 3
Codec ID                    : 2000
Duration                    : 1 h 17 min
Bit rate mode               : Constant
Bit rate                    : 384 kb/s
Channel(s)                  : 6 channels
Channel positions           : Front: L C R, Side: L R, LFE
Sampling rate               : 48.0 kHz
Frame rate                  : 31.250 FPS (1536 SPF)
Bit depth                   : 16 bits
Compression mode            : Lossy
Stream size                 : 214 MiB (14%)
Alignment                   : Split accross interleaves
Interleave, duration        : 42  ms (1.00 video frame)
Interleave, preload duratio : 500  ms
Service kind                : Complete Main
Скриншоты
Download
Для скачивания .torrent файлов необходима регистрация
Сайт не распространяет и не хранит электронные версии произведений, а лишь предоставляет доступ к создаваемому пользователями каталогу ссылок на торрент-файлы, которые содержат только списки хеш-сумм
[Профиль]  [ЛС] 

bot · 31-Дек-17 10:20 (спустя 24 мин.)

Тема была перенесена из форума Мастерская и оформление раздач (Torrents.Ru) в форум Отечественные полнометражные мультфильмы
порошков
 

lapusaika

Стаж: 10 лет 10 месяцев

Сообщений: 56


lapusaika · 17-Янв-18 23:28 (спустя 17 дней)

[Цитировать] 

Что за хрень. Ссылку не качает, пишет скачивание приостановленно.
[Профиль]  [ЛС] 

Mordovian God

Top Seed 01* 40r

Стаж: 2 года 4 месяца

Сообщений: 1489

Mordovian God · 22-Янв-18 02:09 (спустя 4 дня)

[Цитировать] 

порошков писал(а):
74514670Оригинальная аудиодорожка: нет

пичаль-бида...
[Профиль]  [ЛС] 

Tamariscif

Стаж: 1 год 11 месяцев

Сообщений: 357


Tamariscif · 10-Мар-18 09:33 (спустя 1 месяц 19 дней)

[Цитировать] 

Замечательно быстро скачалось, а на следующий день семисотку сделали.
Цитата:
пичаль-бида...
В мультипликации ничего не понимаю, досмотрела и пошла на повтор, весёленький, жизнерадостный мульт. К голосам пришлось минут тридцать привыкать. Уже несколько лет не смотрю рос. ТВ, искусственность интонаций в общении здорово заметна. И не хочется к такому особо привыкать.
Без "моя прелесть" не обошлось, ну, соблазн, понятно, слишком велик.
[Профиль]  [ЛС] 
 
Ответить
Loading...
Error