Дикая природа Амазонки / Wild Amazon [2010, Документальный, HDTV, 1080i]

Страницы:  1

Ответить
Автор
Сообщение

fpdon

Стаж: 10 лет 8 месяцев

Сообщений: 54


fpdon · 08-Янв-12 01:54 (6 лет 10 месяцев назад, ред. 13-Янв-12 13:04)

Дикая природа Амазонки / Wild Amazon
Год выпуска: 2010
Страна: США
Жанр: Документальный
Продолжительность: 2 x ~00:45:00
Перевод: Профессиональный (одноголосый)
Описание: Доминируя над всей территорией Южной Америки, река Амазонка дала жизнь многочисленным видам редких обитателей дикой природы. Она стала домом для таких необычных ее представителей, как красномордая уакари или короткохвостая обезьяна. Она подарила приют и служит глубоким убежищем для ягуаров, гарпий и амазонских ламантинов. Тысячи миль непроходимых густых лесов скрывают от нас удивительный мир, полный необычных примеров выживания и адаптации редких диких животных.
Список серий:
Колыбель жизни / Cradle of Life
Дикое царство / Savage Realm
MI:
Общее
Уникальный идентификатор : 216851463295571664729772773814665883378 (0xA324129A243B5DF7A24D6F1EF8A62EF2)
Полное имя : E:\Дикая природа Амазонки\Дикое царство.mkv
Формат : Matroska
Версия формата : Version 2
Размер файла : 2,10 Гбайт
Продолжительность : 44 м.
Общий поток : 6671 Кбит/сек
Дата кодирования : UTC 2012-01-07 22:55:49
Программа кодирования : mkvmerge v5.2.1 ('A Far Off Place') built on Jan 2 2012 23:21:10
Библиотека кодирования : libebml v1.2.3 + libmatroska v1.3.0
Видео
Идентификатор : 1
Формат : AVC
Формат/Информация : Advanced Video Codec
Профиль формата : [email protected]
Параметр CABAC формата : Да
Параметр ReFrames формата : 4 кадра
Идентификатор кодека : V_MPEG4/ISO/AVC
Продолжительность : 44 м.
Битрейт : 6346 Кбит/сек
Ширина : 1920 пикселей
Высота : 1080 пикселей
Соотношение сторон : 16:9
Частота кадров : 25,000 кадров/сек
Стандарт вещания : Component
Цветовое пространство : YUV
Субдискретизация насыщенности : 4:2:0
Битовая глубина : 8 бит
Тип развёртки : Чересстрочная
Порядок развёртки : Верхнее поле первое
Бит/(Пиксели*Кадры) : 0.122
Размер потока : 1,99 Гбайт (95%)
Основные цвета : BT.709-5, BT.1361, IEC 61966-2-4, SMPTE RP177
Характеристики трансфера : BT.709-5, BT.1361
Коэффициенты матрицы : BT.709-5, BT.1361, IEC 61966-2-4 709, SMPTE RP177
Аудио
Идентификатор : 2
Формат : AC-3
Формат/Информация : Audio Coding 3
Расширение режима : CM (complete main)
Идентификатор кодека : A_AC3
Продолжительность : 44 м.
Вид битрейта : Постоянный
Битрейт : 192 Кбит/сек
Каналы : 2 канала
Расположение каналов : Front: L R
Частота : 48,0 КГц
Битовая глубина : 16 бит
Метод сжатия : С потерями
Задержка видео : -120 мс.
Размер потока : 61,8 Мбайт (3%)
Язык : Russian
Общее
Уникальный идентификатор : 170399451222262398597477767738739290774 (0x8031BD95721AC56DB54032B84FA67296)
Полное имя : E:\Дикая природа Амазонки\Колыбель жизни.mkv
Формат : Matroska
Версия формата : Version 2
Размер файла : 1,92 Гбайт
Продолжительность : 44 м.
Общий поток : 6125 Кбит/сек
Дата кодирования : UTC 2012-01-07 16:33:20
Программа кодирования : mkvmerge v5.2.1 ('A Far Off Place') built on Jan 2 2012 23:21:10
Библиотека кодирования : libebml v1.2.3 + libmatroska v1.3.0
Видео
Идентификатор : 1
Формат : AVC
Формат/Информация : Advanced Video Codec
Профиль формата : [email protected]
Параметр CABAC формата : Да
Параметр ReFrames формата : 4 кадра
Идентификатор кодека : V_MPEG4/ISO/AVC
Продолжительность : 44 м.
Битрейт : 5811 Кбит/сек
Ширина : 1920 пикселей
Высота : 1080 пикселей
Соотношение сторон : 16:9
Частота кадров : 25,000 кадров/сек
Стандарт вещания : Component
Цветовое пространство : YUV
Субдискретизация насыщенности : 4:2:0
Битовая глубина : 8 бит
Тип развёртки : Чересстрочная
Порядок развёртки : Верхнее поле первое
Бит/(Пиксели*Кадры) : 0.112
Размер потока : 1,82 Гбайт (95%)
Основные цвета : BT.709-5, BT.1361, IEC 61966-2-4, SMPTE RP177
Характеристики трансфера : BT.709-5, BT.1361
Коэффициенты матрицы : BT.709-5, BT.1361, IEC 61966-2-4 709, SMPTE RP177
Аудио
Идентификатор : 2
Формат : AC-3
Формат/Информация : Audio Coding 3
Расширение режима : CM (complete main)
Идентификатор кодека : A_AC3
Продолжительность : 44 м.
Вид битрейта : Постоянный
Битрейт : 192 Кбит/сек
Каналы : 2 канала
Расположение каналов : Front: L R
Частота : 48,0 КГц
Битовая глубина : 16 бит
Метод сжатия : С потерями
Задержка видео : -120 мс.
Размер потока : 61,7 Мбайт (3%)
Язык : Russian
Скриншоты
Качество: HDTVRip
Формат: MKV
Видео кодек: H.264
Аудио кодек: AC3
Видео: MPEG4 Video, (H264), 1920x1080, 25.000 fps, ~6000 kbps
Аудио: Dolby AC3, 48000 Hz, 192kbps
Download
Для скачивания .torrent файлов необходима регистрация
Сайт не распространяет и не хранит электронные версии произведений, а лишь предоставляет доступ к создаваемому пользователями каталогу ссылок на торрент-файлы, которые содержат только списки хеш-сумм
[Профиль]  [ЛС] 

SALDAT400V

Стаж: 8 лет 9 месяцев

Сообщений: 342


SALDAT400V · 08-Янв-12 20:00 (спустя 18 часов)

[Цитировать] 

Бочка мёду:
1.Раздающему - спасибо большое.
2.Очень ценная раздача.
3. Побольше бы таких.
Ложечка дёгтя:
Может кто поможет прояснить ситуацию, или ещё лучше добрым советом - что делать если с флешки в ТВ данные фильмы воспроизводятся с периодичным изменением скорости. Период примерно секунда. В начале секунды скорость нормальная, а далее нарастает примерно до тройной. Наблюдая визуально, поэтому возможно, что фаза периода сдвинута - скорость вначале ( или в середине)тройная, а затем падает к нормальной. На звуке это никак не отражается, как и на просмотре в PC.
Добавка к бочке - маленький бочёнок мёду: На общее восприятие фильмов ложечка влияет мало.
[Профиль]  [ЛС] 

vladimirbw

Стаж: 7 лет 1 месяц

Сообщений: 3


vladimirbw · 08-Янв-12 20:17 (спустя 16 мин.)

[Цитировать] 

КАЧЕСТВО ВИДЕО СЛАБОВАТО
[Профиль]  [ЛС] 

fknpourn

Стаж: 9 лет 8 месяцев

Сообщений: 5

fknpourn · 09-Янв-12 16:23 (спустя 20 часов, ред. 09-Янв-12 16:23)

[Цитировать] 

Фильм интересный. Качество хорошее, кому мало смотрите Blu-ray
[Профиль]  [ЛС] 

Александр Конев

Стаж: 8 лет 6 месяцев

Сообщений: 2


Александр Конев · 10-Янв-12 15:16 (спустя 22 часа)

[Цитировать] 

фильм интересный... но... почему в сериях разная частота кадров?
[Профиль]  [ЛС] 

MegaKvazaR

Стаж: 10 лет 11 месяцев

Сообщений: 762

MegaKvazaR · 26-Фев-12 20:07 (спустя 1 месяц 16 дней)

[Цитировать] 

>Фильм интересный. Качество хорошее, кому мало смотрите Blu-ray
А есть такой?!
[Профиль]  [ЛС] 

yanxxx64

Стаж: 8 лет 10 месяцев

Сообщений: 10

yanxxx64 · 15-Июн-15 20:36 (спустя 3 года 3 месяца)

[Цитировать] 

Blu-ray бы, такое только в таком супер качестве смотреть нужно.
[Профиль]  [ЛС] 

danserg2003

Стаж: 9 лет 7 месяцев

Сообщений: 142


danserg2003 · 23-Ноя-17 03:56 (спустя 2 года 5 месяцев)

[Цитировать] 

где раздающие?
[Профиль]  [ЛС] 
 
Ответить
Loading...
Error