Гадкий я 3 / Despicable Me 3 (Эрик Гуильон / Eric Guillon, Кайл Балда / Kyle Balda, Пьер Коффан / Pierre Coffin) [2017, США, мультфильм, фантастика, боевик, BDRip-AVC] Dub + Sub (rus)

Страницы:  1

Ответить
Автор
Сообщение

Stalker oK

Стаж: 8 лет 5 месяцев

Сообщений: 1576

Stalker oK · 21-Сен-17 22:52 (10 месяцев назад, ред. 28-Окт-17 20:00)

Гадкий я 3
Despicable Me 3
«Такие разные близнецы»

Страна: США
Жанр: мультфильм, фантастика, боевик, комедия, приключения, семейный
Год выпуска: 2017
Продолжительность: 01:29:40
Перевод: Профессиональный (полное дублирование) [Blu-ray EUR]
Субтитры: русские (форсированные, полные)
Оригинальная аудиодорожка: нет
Режиссер: Эрик Гуильон / Eric Guillon, Кайл Балда / Kyle Balda, Пьер Коффан / Pierre Coffin
В ролях: Стив Карелл, Кристен Уиг, Трей Паркер, Миранда Косгров, Дэна Гайер, Нев Шаррел, Пьер Коффан, Стив Куган, Джули Эндрюс, Дженни Слейт, Майкл Битти, Энди Найман
Описание:
Грядет третье пришествие. Многодетный суперагент, роковая красотка и бессмертные миньоны на подходе. Готовьтесь. Они будут править миром.

Автор рипа: stalkerok
Сэмпл
Качество видео: BDRip-AVC [DESPICABLE_ME3_BLUEBIRD]
Формат видео: MKV
Видео: 1851 Кбит/сек, 960x402 (2.40:1), 23,976 кадр/сек, AVC
Аудио: русский, 448 Кбит/сек, 48 КГц, 5.1, AC3
Навигация по главам: есть

x264/MediaInfo
x264 [info]: frame I:1011 Avg QP:16.60 size: 61357
x264 [info]: frame P:30873 Avg QP:18.60 size: 17903
x264 [info]: frame B:97123 Avg QP:21.61 size: 5880
Общее
Уникальный идентификатор : 213902768382648610260608012493046079159 (0xA0EC2CB7EE0BADA2ADCBA8C44DD2DEB7)
Полное имя : M:\!Rips2017\Despicable Me 3\Despicable.Me.3.2017.BDRip-AVC.RUS.stalkerok.new-team.mkv
Формат : Matroska
Версия формата : Version 4 / Version 2
Размер файла : 1,44 Гбайт
Продолжительность : 1 ч. 29 м.
Общий поток : 2301 Кбит/сек
Название фильма : Despicable Me 3 (2017) (Rip by stalkerok)
Дата кодирования : UTC 2017-10-28 16:31:46
Программа кодирования : mkvmerge v8.6.1 ('Flying') 64bit
Библиотека кодирования : libebml v1.3.3 + libmatroska v1.4.4
Видео
Идентификатор : 1
Формат : AVC
Формат/Информация : Advanced Video Codec
Профиль формата : [email protected]
Параметр CABAC формата : Да
Параметр ReFrames формата : 15 кадров
Идентификатор кодека : V_MPEG4/ISO/AVC
Продолжительность : 1 ч. 29 м.
Битрейт : 1851 Кбит/сек
Ширина : 960 пикселей
Высота : 402 пикселя
Соотношение сторон : 2,40:1
Режим частоты кадров : Постоянный
Частота кадров : 23,976 (24000/1001) кадра/сек
Цветовое пространство : YUV
Субдискретизация насыщенности : 4:2:0
Битовая глубина : 8 бит
Тип развёртки : Прогрессивная
Бит/(Пиксели*Кадры) : 0.200
Размер потока : 1,16 Гбайт (80%)
Заголовок : Despicable Me 3 (2017) (Rip by stalkerok)
Библиотека кодирования : x264 core 150 r2833kMod df79067
Настройки программы : cabac=1 / ref=15 / deblock=1:-3:-2 / analyse=0x3:0x133 / me=umh / subme=11 / psy=1 / fade_compensate=0.00 / psy_rd=1.00:0.00 / mixed_ref=1 / me_range=32 / chroma_me=1 / trellis=2 / 8x8dct=1 / cqm=0 / deadzone=21,11 / fast_pskip=0 / chroma_qp_offset=-2 / threads=12 / lookahead_threads=3 / sliced_threads=0 / nr=0 / decimate=1 / interlaced=0 / bluray_compat=0 / constrained_intra=0 / bframes=15 / b_pyramid=2 / b_adapt=2 / b_bias=0 / direct=3 / weightb=1 / open_gop=0 / weightp=2 / keyint=240 / keyint_min=23 / scenecut=40 / intra_refresh=0 / rc_lookahead=60 / rc=crf / mbtree=0 / crf=17.6000 / qcomp=0.65 / qpmin=0 / qpmax=69 / qpstep=4 / vbv_maxrate=50000 / vbv_bufsize=62500 / crf_max=0.0 / nal_hrd=none / filler=0 / ip_ratio=1.40 / pb_ratio=1.30 / aq=3:0.80
Default : Да
Forced : Нет
Аудио
Идентификатор : 2
Формат : AC-3
Формат/Информация : Audio Coding 3
Расширение режима : CM (complete main)
Параметр Endianness формата : Big
Идентификатор кодека : A_AC3
Продолжительность : 1 ч. 29 м.
Вид битрейта : Постоянный
Битрейт : 448 Кбит/сек
Каналы : 6 каналов
Расположение каналов : Front: L C R, Side: L R, LFE
Частота : 48,0 КГц
Частота кадров : 31,250 кадров/сек (1536 spf)
Метод сжатия : С потерями
Размер потока : 287 Мбайт (19%)
Язык : Russian
Default : Да
Forced : Нет
Текст #1
Идентификатор : 3
Формат : UTF-8
Идентификатор кодека : S_TEXT/UTF8
Идентификатор кодека/Информация : UTF-8 Plain Text
Продолжительность : 1 ч. 27 м.
Битрейт : 1 бит/сек
Count of elements : 30
Размер потока : 969 байт (0%)
Заголовок : forced
Язык : Russian
Default : Да
Forced : Нет
Текст #2
Идентификатор : 4
Формат : UTF-8
Идентификатор кодека : S_TEXT/UTF8
Идентификатор кодека/Информация : UTF-8 Plain Text
Продолжительность : 1 ч. 28 м.
Битрейт : 78 бит/сек
Count of elements : 1084
Размер потока : 51,3 Кбайт (0%)
Язык : Russian
Default : Нет
Forced : Нет
Меню
00:00:00.000 : en:Chapter 1
00:03:06.102 : en:Chapter 2
00:07:57.976 : en:Chapter 3
00:11:12.837 : en:Chapter 4
00:16:15.765 : en:Chapter 5
00:20:07.497 : en:Chapter 6
00:24:07.988 : en:Chapter 7
00:28:57.067 : en:Chapter 8
00:32:55.347 : en:Chapter 9
00:39:01.838 : en:Chapter 10
00:42:44.186 : en:Chapter 11
00:46:47.179 : en:Chapter 12
00:50:55.635 : en:Chapter 13
00:56:12.077 : en:Chapter 14
01:00:02.264 : en:Chapter 15
01:05:41.228 : en:Chapter 16
01:10:14.542 : en:Chapter 17
01:14:33.760 : en:Chapter 18
01:19:29.722 : en:Chapter 19
01:21:56.994 : en:Chapter 20
Скриншоты
Download
Для скачивания .torrent файлов необходима регистрация
Сайт не распространяет и не хранит электронные версии произведений, а лишь предоставляет доступ к создаваемому пользователями каталогу ссылок на торрент-файлы, которые содержат только списки хеш-сумм
[Профиль]  [ЛС] 

идд2

Стаж: 2 года 8 месяцев

Сообщений: 406

идд2 · 13-Окт-17 19:16 (спустя 21 день)

[Цитировать] 

Хуже 2-х предыдущих серии.
[Профиль]  [ЛС] 

unclestep2002

Стаж: 5 лет 7 месяцев

Сообщений: 35

unclestep2002 · 14-Окт-17 19:22 (спустя 1 день)

[Цитировать] 

куча версий в avi и никто не может в DVD выложить.
[Профиль]  [ЛС] 

Stalker oK

Стаж: 8 лет 5 месяцев

Сообщений: 1576

Stalker oK · 14-Окт-17 19:28 (спустя 5 мин.)

[Цитировать] 

unclestep2002 писал(а):
74017538куча версий в avi и никто не может в DVD выложить.
А это разве ави?
Вот вам BDRip 720p http://rutracker.org/forum/viewtopic.php?t=5456667 размер тот же, качество лучше.
[Профиль]  [ЛС] 

veronas064

Стаж: 4 года 2 месяца

Сообщений: 1088

veronas064 · 26-Окт-17 18:59 (спустя 11 дней)

[Цитировать] 

Возможно, ценителям первых двух мультов оно и понравится.
[Профиль]  [ЛС] 

unclestep2002

Стаж: 5 лет 7 месяцев

Сообщений: 35

unclestep2002 · 11-Ноя-17 22:16 (спустя 16 дней)

[Цитировать] 

Stalker oK
в обычном DVD проще
[Профиль]  [ЛС] 

Stalker oK

Стаж: 8 лет 5 месяцев

Сообщений: 1576

Stalker oK · 12-Ноя-17 00:49 (спустя 2 часа 32 мин.)

[Цитировать] 

unclestep2002, не знаю что может быть проще, чем качнуть на хард и посмотреть на телевизоре, подключённом HDMI.
Но каждому своё.
[Профиль]  [ЛС] 

KiroKan

Стаж: 9 лет

Сообщений: 5


KiroKan · 19-Ноя-17 17:51 (спустя 7 дней)

[Цитировать] 

Stalker oK писал(а):
74215679unclestep2002, не знаю что может быть проще, чем качнуть на хард и посмотреть на телевизоре, подключённом HDMI.
Но каждому своё.
качнуть на телик и сразу посмотреть, например
[Профиль]  [ЛС] 

juice of blood

Стаж: 6 лет 7 месяцев

Сообщений: 257

juice of blood · 09-Июл-18 19:56 (спустя 7 месяцев)

[Цитировать] 

Ох, ну и хрень же... В принципе, можно было бы в первые пять-десять минут догадаться, что если мультфильм начинается с шуток "ниже пояса" - то с ним определенно что-то не так. И я не про "пушку, заправленную пердежом" в заставке.
[Профиль]  [ЛС] 

Felidae1983

Стаж: 9 лет 9 месяцев

Сообщений: 255


Felidae1983 · 11-Июл-18 10:57 (спустя 1 день 15 часов, ред. 11-Июл-18 10:57)

[Цитировать] 

Год назад смотрел в кинотеатре. Лучшая часть мульта - злодей из 80-х и все, что связанно с ним. Больше ничего примечательного тут нет. Сам мульт на один раз. Без обид))))
[Профиль]  [ЛС] 
 
Ответить
Loading...
Error