[DSD][OF] Vivaldi,Tartini,Veracini,Pisendel / Grandissima Gravita (Rachel Podger, Brecon Baroque) / DSD 128 - 2017 (Classical)

Страницы:  1

Ответить
Автор
Сообщение

igorku2

Стаж: 10 лет 6 месяцев

Сообщений: 71

igorku2 · 09-Ноя-17 22:54 (1 год 1 месяц назад, ред. 11-Ноя-17 17:46)

Vivaldi,Tartini,Veracini,Pisendel / Grandissima Gravita (Rachel Podger, Brecon Baroque) / 2017 DSD 128
Формат записи/Источник записи: [DSD][OF]
Наличие водяных знаков: Нет
Год издания/переиздания диска: 2017
Жанр: Classical
Издатель (лейбл): Channel Classics Records
Продолжительность: 1:08:46
Наличие сканов в содержимом раздачи: Буклет PDF
Контейнер: DFF (*.dff)
Тип рипа: tracks
Разрядность: 128(5,6 MHz/1 Bit)
Формат: DST128
Количество каналов: 2.0
Треклист
01 .Vivaldi-Sonata for violin and continuo in A major Op. 2 no 2
02-04. Tartini-Sonata for violin and continuo in A major Op. 2 no 2
02. Andante Cantabile
03. Allegro
04. Allegro assai
05-08. Veracini- Sonata for violin and continuo in G minor Op. 2 no 5
05. Adagio assai
06. Capriccio
07. Allegro assai
08. Giga
09-12. Pisendel-Sonata for violin and harpsichord in C minor
09. Adagio
10. Presto
11. Affetuoso
12. VivaceP
13-15. Veracini-Sonata No. 12 for violin and continuo in D minor Op 2 no 12 (SonateAccademiche)
13. Passagallo
14. Capriccio cromatico
15. Adagio, Ciaccona
16. Suonata a solo fatto per il Maestro Pisendel’ del Vivaldi in C minor Adagio in E flat major
Лог проверки качества
foobar2000 1.3.16 / Dynamic Range Meter 1.1.1
log date: 2017-11-09 20:49:10
--------------------------------------------------------------------------------
Analyzed: Rachel Podger, Brecon Baroque / Grandissima Gravita
--------------------------------------------------------------------------------
DR Peak RMS Duration Track
--------------------------------------------------------------------------------
DR13 -9.72 dB -27.38 dB 6:30 01-Sonata for violin and continuo in A major op. 2 no. 2
DR14 -8.81 dB -27.43 dB 8:12 02-Sonata for violin and continuo in A minor - Andante Cantabile
DR13 -9.28 dB -27.37 dB 3:51 03-Sonata for violin and continuo in A minor - Allegro
DR14 -9.01 dB -26.66 dB 4:05 04-Sonata for violin and continuo in A minor - Allegro assai
DR13 -11.30 dB -29.31 dB 4:29 05-Sonata for violin and continuo in G minor op 2 no. 5 - Adagio assai
DR14 -9.63 dB -27.18 dB 4:49 06-Sonata for violin and continuo in G minor op 2 no. 5 - Capriciio
DR14 -8.76 dB -26.60 dB 2:51 07-Sonata for violin and continuo in G minor op 2 no. 5 - Allegro assai
DR14 -10.33 dB -27.30 dB 2:35 08-Sonata for violin and continuo in G minor op 2 no. 5 - Giga
DR13 -14.25 dB -31.44 dB 2:45 09-Sonata for violin and harpsichord in C minor - Adaio
DR12 -11.61 dB -28.79 dB 3:26 10-Sonata for violin and harpsichord in C minor - Presto
DR12 -15.41 dB -32.91 dB 2:55 11-Sonata for violin and harpsichord in C minor - Affetuoso
DR13 -12.47 dB -28.48 dB 4:07 12-Sonata for violin and harpsichord in C minor - Vivace
DR13 -12.05 dB -29.88 dB 4:20 13-Sonata no. 12 for violin and continuo in D minor - Passagallo
DR13 -9.61 dB -27.73 dB 3:10 14-Sonata no. 12 for violin and continuo in D minor - Capriccio cromatico
DR14 -10.67 dB -28.31 dB 7:18 15-Sonata no. 12 for violin and continuo in D minor - Adagio, Ciaccona
DR13 -13.99 dB -30.14 dB 3:34 16-Sonata a solo in E flat major
--------------------------------------------------------------------------------
Number of tracks: 16
Official DR value: DR13
Samplerate: 44100 Hz
Channels: 2
Bits per sample: 24
Bitrate: 11290 kbps
Codec: DSD128
================================================================================
Скриншот спектра частот
Источник (релизер): https://www.channelclassics.com/catalogue/39217-Grandissima-Gravita/
Download
Для скачивания .torrent файлов необходима регистрация
Сайт не распространяет и не хранит электронные версии произведений, а лишь предоставляет доступ к создаваемому пользователями каталогу ссылок на торрент-файлы, которые содержат только списки хеш-сумм
[Профиль]  [ЛС] 

kasatkal

Moderator

Стаж: 10 лет 5 месяцев

Сообщений: 12774

kasatkal · 10-Ноя-17 10:31 (спустя 11 часов)

[Цитировать] 

igorku2
4.1. Заголовок топика (темы) должен содержать (в порядке перечисления, помимо пунктов, вписываемых в заголовок автоматически): фамилию композитора, название произведения и в круглых скобках фамилию или название исполнителя.
Обложку в оформлении сделайте, пожалуйста, не кликабельной,
4.9 Обложка в оформлении раздачи обязательна. Это относится как к единичным альбомам/синглам/сборникам/компиляциям/концертникам и т.д., так и к аналогичному материалу в составе коллекций/дискографий и прочих сборных раздач. Исключение составляют релизы, к которым обложки не предусмотрены.
Разрешение обложки диска в описании раздачи должно находиться в пределах от 500x500 до 200x200 пикселей (допускается превышение размера по одной из сторон, при условии сохранения общей площади изображения не более 250000). Размер файла обложки при этом не должен превышать 500 Kb. Запрещено использование анимированных обложек и обложек с рекламой сторонних ресурсов. При наличии в оформлении раздачи более одной обложки все дополнительные необходимо прятать (убирать) под спойлер.
Код:
[img=right]ссылка на обложку[/img]

6.5.1. При раздаче дисков с музыкальными произведениями, каждое из которых занимает несколько треков, фамилию композитора, название произведения и фамилии
исполнителей следует указывать один раз для всего произведения, в виде подзаголовка.
Исправьте и отпишитесь, пожалуйста.
[Профиль]  [ЛС] 
 
Ответить
Loading...
Error