Смешарики. Легенда о золотом драконе (Денис Чернов) [2016, Мультфильм, приключения, комедия, WEB-DLRip]

Страницы:  1

Ответить
Автор
Сообщение

dalemake

RG All Films

Стаж: 8 лет 9 месяцев

Сообщений: 2878

dalemake · 21-Апр-16 01:47 (2 года 4 месяца назад, ред. 21-Апр-16 07:25)

Смешарики. Легенда о золотом драконе
«Предпоследняя надежда человечества»

Год выхода: 2016
Выпущено: Россия / Art Pictures Studio
Жанр: мультфильм, приключения, комедия
Продолжительность: 01:20:17
Перевод: Не требуется
Субтитры: нет
Режиссер:
Денис Чернов
В ролях:
Михаил Черняк, Сергей Мардарь, Антон Виноградов, Владимир Постников, Светлана Письмиченко, Вадим Бочанов, Гарик Харламов, Дмитрий Нагиев, Елена Шульман, Владимир Маслаков
О фильме:
Выдающийся учёный и его команда отправляются в самое сердце диких джунглей, где их ждут опасные приключения, свирепые туземцы и расхитители гробниц, до зубов вооруженные гаджетами.
Релиз групп | | КиноПоиск | Сэмпл |
Качество: WEB-DLRip [WEB-DL | 1080p]
Формат: AVI
Видео: 720x304 (2.37:1), 23.976 fps, XviD build 67 ~2193 kbps avg, 0.42 bit/pixel
Аудио: 48 kHz, AC3 Dolby Digital, 3/2 (L,C,R,l,r) + LFE ch, ~384.00 kbps avg - iTunes Russia

Скриншоты
MediaInfo
Код:
General
Complete name                            : D:\Smeshariki_2016_WEB-DLRip_by_Dalemake.avi
Format                                   : AVI
Format/Info                              : Audio Video Interleave
File size                                : 1.45 GiB
Duration                                 : 1h 20mn
Overall bit rate                         : 2 587 Kbps
Writing application                      : VirtualDubMod 1.5.10.3 | www.virtualdub-fr.org || (build 2550/release)
Writing library                          : VirtualDubMod build 2550/release
Video
ID                                       : 0
Format                                   : MPEG-4 Visual
Format profile                           : Advanced [email protected]
Format settings, BVOP                    : 1
Format settings, QPel                    : No
Format settings, GMC                     : No warppoints
Format settings, Matrix                  : Custom
Codec ID                                 : XVID
Codec ID/Hint                            : XviD
Duration                                 : 1h 20mn
Bit rate                                 : 2 194 Kbps
Width                                    : 720 pixels
Height                                   : 304 pixels
Display aspect ratio                     : 2.35:1
Frame rate                               : 23.976 (23976/1000) fps
Color space                              : YUV
Chroma subsampling                       : 4:2:0
Bit depth                                : 8 bits
Scan type                                : Progressive
Compression mode                         : Lossy
Bits/(Pixel*Frame)                       : 0.418
Stream size                              : 1.23 GiB (85%)
Writing library                          : XviD 67
Audio
ID                                       : 1
Format                                   : AC-3
Format/Info                              : Audio Coding 3
Mode extension                           : CM (complete main)
Format settings, Endianness              : Big
Codec ID                                 : 2000
Duration                                 : 1h 20mn
Bit rate mode                            : Constant
Bit rate                                 : 384 Kbps
Channel(s)                               : 6 channels
Channel positions                        : Front: L C R, Side: L R, LFE
Sampling rate                            : 48.0 KHz
Frame rate                               : 31.250 fps (1536 spf)
Compression mode                         : Lossy
Stream size                              : 221 MiB (15%)
Alignment                                : Split accross interleaves
Interleave, duration                     : 42 ms (1.00 video frame)
Interleave, preload duration             : 500 ms

Download
Для скачивания .torrent файлов необходима регистрация
Сайт не распространяет и не хранит электронные версии произведений, а лишь предоставляет доступ к создаваемому пользователями каталогу ссылок на торрент-файлы, которые содержат только списки хеш-сумм
[Профиль]  [ЛС] 

Карбофос 13

Стаж: 7 лет 9 месяцев

Сообщений: 3


Карбофос 13 · 21-Апр-16 20:13 (спустя 18 часов)

[Цитировать] 

Выдаёт ошибка файла,не могу прочитать
[Профиль]  [ЛС] 

eugenethemonster

Стаж: 9 лет

Сообщений: 4


eugenethemonster · 01-Май-16 21:34 (спустя 10 дней)

[Цитировать] 

Всё прекрасно открывается - отличный мульт!
Благодарим за раздачу.
[Профиль]  [ЛС] 

MartyAlex

Стаж: 3 года 4 месяца

Сообщений: 7


MartyAlex · 15-Май-16 10:41 (спустя 13 дней)

[Цитировать] 

Отличное качество! И никаких ошибок!И мульт хороший !
[Профиль]  [ЛС] 

Konzepzia

Стаж: 8 лет

Сообщений: 5

Konzepzia · 21-Май-16 20:07 (спустя 6 дней)

[Цитировать] 

Меня очень напугало начало мультфильма поскольку с первых секунд появилась заставка студии Юнивёрсал. И мои опасения оправдались: Копатыч в стрингах, унижение Пина и многое другое - смешарики продались. Это закат отличного проекта, жаль, очень жаль! Правда ЭТОТ мультфильм ещё можно смотреть, но в отличии от "Смешарики. Начало" только один раз.
[Профиль]  [ЛС] 

zara222

Стаж: 5 лет 3 месяца

Сообщений: 78


zara222 · 29-Сен-16 20:18 (спустя 4 месяца 8 дней)

[Цитировать] 

Как это можно показывать детям!! Жалко очень жалко такую муру снимают деньги на ветер...
[Профиль]  [ЛС] 

yugrec

Стаж: 9 лет 8 месяцев

Сообщений: 300

yugrec · 04-Дек-16 20:34 (спустя 2 месяца 5 дней)

[Цитировать] 

вполне нормальный мульт, дитю понравилось, да и взрослые посмотрели, все ок. С лупой в подробности не вглядывались, на каждом слове не останавливали и не анализировали на предмет духовности, потому оценка твердая 4 из 5
[Профиль]  [ЛС] 

Moorka

Стаж: 8 лет 2 месяца

Сообщений: 53

Moorka · 18-Авг-17 23:58 (спустя 8 месяцев)

[Цитировать] 

Ну понаворотили-то... даже слишком. Прям комом всё
[Профиль]  [ЛС] 
 
Ответить
Loading...
Error