[TR24][SM][OF] J. S. Bach - Goldberg Variations • Glenn Gould - The 1955 & 1981 Recordings - 2015 (Classical)

Страницы:  1

Ответить
Автор
Сообщение

vladcap343

Стаж: 8 лет 8 месяцев

Сообщений: 499


vladcap343 · 03-Июн-17 23:41 (1 год 6 месяцев назад, ред. 04-Июн-17 07:19)

·
·
·
Glenn Herbert Gould
(1932―1982)

Canadian classical pianist
Жанр: Keyboard
Носитель: Official Digital Download
Издатель: © Sony Music Entertainment
Номер по каталогу: G010002895602T
Продолжительность: 01:29:15
Наличие сканов альбома: artwork
Контейнер: FLAC (*.flac)
Разрядность: 24/96 & 24/44.1
Количество каналов: 2.0
Формат: tracks
Источник: qobuz.com
Pелизер: WEB (thanks to the original customer)
Historic 1955 Debut Recording
·
·
·
·

Johann Sebastian Bach
(1685―1750)
Жанр: Keyboard
Дата записи: 10-16 June 1955
Год выпуска: 1956
Издатель: © Columbia Masterworks
Номер по каталогу: ML 5060
Продолжительность: 00:38:18
Контейнер: FLAC (*.flac)
Разрядность: 24/96
Количество каналов: 2.0
Формат: tracks
Треклист
Goldberg Variations BWV 988
01 Aria 01:52
02 Variation 1 a 1 Clav. 00:45
03 Variation 2 a 1 Clav. 00:38
04 Variation 3 a 1 Clav. Canone all' Unisuono 00:55
05 Variation 4 a 1 Clav. 00:29
06 Variation 5 a 1 ovvero 2 Clav. 00:37
07 Variation 6 a 1 Clav. Canone alla Seconda 00:35
08 Variation 7 a 1 ovvero 2 Clav. 01:08
09 Variation 8 a 2 Clav. 00:46
10 Variation 9 a 1 Clav. Canone alla Terza 00:38
11 Variation 10 a 1 Clav. Fughetta 00:43
12 Variation 11 a 2 Clav. 00:55
13 Variation 12 Canone alla Quarta 00:56
14 Variation 13 a 2 Clav. 02:10
15 Variation 14 a 2 Clav. 00:59
16 Variation 15 a 1 Clav. Canone alla Quinta. Andante 02:17
17 Variation 16 Ouverture a 1 Clav. 01:18
18 Variation 17 a 2 Clav. 00:54
19 Variation 18 - Canone alla Sesta a 1 Clav. 00:46
20 Variation 19 a 1 Clav. 00:43
21 Variation 20 a 2 Clav. 00:49
22 Variation 21 Canone alla Settima 01:43
23 Variation 22 Alla breve a 1 Clav. 00:43
24 Variation 23 a 2 Clav. 00:55
25 Variation 24 Canone all' Ottava a 1 Clav. 00:57
26 Variation 25 a 2 Clav. 06:30
27 Variation 26 a 2 Clav. 00:52
28 Variation 27 Canone alla Nona 00:50
29 Variation 28 a 2 Clav. 01:11
30 Variation 29 a 1 ovvero 2 Clav. 01:00
31 Variation 30 a 1 Clav. Quodlibet 00:48
32 Aria da capo 02:12
Dynamic Range Meter
foobar2000 1.2.6 / Dynamic Range Meter 1.1.1
log date: 2016-03-07 01:13:27
--------------------------------------------------------------------------------
Analyzed: Glenn Gould, Associated Performer, Main Artist, Piano - Howard H. Scott, Producer - Johann Sebastian Bach, Composer / Glenn Gould : Bach: Goldberg Variations, BWV 988 (1-31)
Glenn Gould, Main Artist, Piano - Howard H. Scott, Producer - Johann Sebastian Bach, Composer / Glenn Gould : Bach: Goldberg Variations, BWV 988 (32)
--------------------------------------------------------------------------------
DR Peak RMS Duration Track
--------------------------------------------------------------------------------
DR9 -4.18 dB -16.09 dB 0:45 02-Goldberg Variations, BWV 988:Variation 1 a 1 Clav. (1955 Version)
DR10 -3.58 dB -16.57 dB 0:38 03-Goldberg Variations, BWV 988:Variation 2 a 1 Clav. (1955 Version)
DR10 -3.75 dB -17.21 dB 0:55 04-Goldberg Variations, BWV 988:Variation 3 a 1 Clav. Canone all' Unisuono (1955 Version)
DR9 -0.34 dB -12.28 dB 0:29 05-Goldberg Variations, BWV 988:Variation 4 a 1 Clav. (1955 Version)
DR9 -2.74 dB -15.08 dB 0:37 06-Goldberg Variations, BWV 988:Variation 5 a 1 ovvero 2 Clav. (1955 Version)
DR10 -7.83 dB -21.53 dB 0:35 07-Goldberg Variations, BWV 988:Variation 6 a 1 Clav. Canone alla Seconda (1955 Version)
DR11 -5.55 dB -20.48 dB 1:08 08-Goldberg Variations, BWV 988:Variation 7 a 1 ovvero 2 Clav. (1955 Version)
DR10 -4.37 dB -17.16 dB 0:46 09-Goldberg Variations, BWV 988:Variation 8 a 2 Clav. (1955 Version)
DR9 -2.79 dB -15.73 dB 0:38 10-Goldberg Variations, BWV 988:Variation 9 a 1 Clav. Canone alla Terza (1955 Version)
DR10 -2.56 dB -15.74 dB 0:43 11-Goldberg Variations, BWV 988:Variation 10 a 1 Clav. Fughetta (1955 Version)
DR10 -4.03 dB -18.18 dB 0:55 12-Goldberg Variations, BWV 988:Variation 11 a 2 Clav. (1955 Version)
DR9 -0.72 dB -11.57 dB 0:56 13-Goldberg Variations, BWV 988:Variation 12 Canone alla Quarta (1955 Version)
DR10 -3.81 dB -21.04 dB 2:11 14-Goldberg Variations, BWV 988:Variation 13 a 2 Clav. (1955 Version)
DR10 -3.26 dB -15.40 dB 0:59 15-Goldberg Variations, BWV 988:Variation 14 a 2 Clav. (1955 Version)
DR11 -5.44 dB -20.64 dB 2:17 16-Goldberg Variations, BWV 988:Variation 15 a 1 Clav. Canone alla Quinta. Andante (1955 Version)
DR10 -3.20 dB -15.78 dB 1:18 17-Goldberg Variations, BWV 988:Variation 16 Ouverture a 1 Clav. (1955 Version)
DR10 -6.42 dB -19.40 dB 0:53 18-Goldberg Variations, BWV 988:Variation 17 a 2 Clav. (1955 Version)
DR11 -8.50 dB -22.85 dB 0:46 19-Goldberg Variations, BWV 988:Variation 18 - Canone alla Sesta a 1 Clav. (1955 Version)
DR11 -7.73 dB -22.76 dB 0:43 20-Goldberg Variations, BWV 988:Variation 19 a 1 Clav. (1955 Version)
DR10 -4.61 dB -16.73 dB 0:49 21-Goldberg Variations, BWV 988:Variation 20 a 2 Clav. (1955 Version)
DR12 -3.02 dB -16.74 dB 1:43 22-Goldberg Variations, BWV 988:Variation 21 Canone alla Settima (1955 Version)
DR10 -2.17 dB -14.47 dB 0:42 23-Goldberg Variations, BWV 988:Variation 22 Alla breve a 1 Clav. (1955 Version)
DR11 -2.42 dB -15.80 dB 0:55 24-Goldberg Variations, BWV 988:Variation 23 a 2 Clav. (1955 Version)
DR10 -4.28 dB -17.01 dB 0:57 25-Goldberg Variations, BWV 988:Variation 24 Canone all' Ottava a 1 Clav. (1955 Version)
DR16 -5.95 dB -27.39 dB 6:30 26-Goldberg Variations, BWV 988:Variation 25 a 2 Clav. (1955 Version)
DR11 -2.66 dB -15.70 dB 0:52 27-Goldberg Variations, BWV 988:Variation 26 a 2 Clav. (1955 Version)
DR10 -3.47 dB -15.55 dB 0:50 28-Goldberg Variations, BWV 988:Variation 27 Canone alla Nona (1955 Version)
DR10 -4.52 dB -17.55 dB 1:11 29-Goldberg Variations, BWV 988:Variation 28 a 2 Clav. (1955 Version)
DR10 -2.31 dB -14.29 dB 1:00 30-Goldberg Variations, BWV 988:Variation 29 a 1 ovvero 2 Clav. (1955 Version)
DR11 -1.23 dB -14.19 dB 0:49 31-Goldberg Variations, BWV 988:Variation 30 a 1 Clav. Quodlibet (1955 Version)
DR11 -12.67 dB -28.53 dB 2:08 32-Goldberg Variations, BWV 988:Aria da capo (1955 Version)
DR12 -5.14 dB -21.82 dB 1:53 01-Goldberg Variations, BWV 988:Aria
--------------------------------------------------------------------------------
Number of tracks: 32
Official DR value: DR10
Samplerate: 96000 Hz
Channels: 2
Bits per sample: 24
Bitrate: 1742 kbps
Codec: FLAC
================================================================================
1981 Digital Recording
·
·
·
·

Johann Sebastian Bach
(1685―1750)
Жанр: Keyboard
Дата записи: April & May 1981
Год выпуска: 1982
Издатель: © CBS Masterworks Digital
Номер по каталогу: IM 37779
Продолжительность: 00:51:03
Контейнер: FLAC (*.flac)
Разрядность: 24/44.1
Количество каналов: 2.0
Формат: tracks
Треклист
Goldberg Variations BWV 988
01 Aria 01:52
02 Variation 1 a 1 Clav. 00:45
03 Variation 2 a 1 Clav. 00:38
04 Variation 3 a 1 Clav. Canone all' Unisuono 00:55
05 Variation 4 a 1 Clav. 00:29
06 Variation 5 a 1 ovvero 2 Clav. 00:37
07 Variation 6 a 1 Clav. Canone alla Seconda 00:35
08 Variation 7 a 1 ovvero 2 Clav. 01:08
09 Variation 8 a 2 Clav. 00:46
10 Variation 9 a 1 Clav. Canone alla Terza 00:38
11 Variation 10 a 1 Clav. Fughetta 00:43
12 Variation 11 a 2 Clav. 00:55
13 Variation 12 Canone alla Quarta 00:56
14 Variation 13 a 2 Clav. 02:10
15 Variation 14 a 2 Clav. 00:59
16 Variation 15 a 1 Clav. Canone alla Quinta. Andante 02:17
17 Variation 16 Ouverture a 1 Clav. 01:18
18 Variation 17 a 2 Clav. 00:54
19 Variation 18 - Canone alla Sesta a 1 Clav. 00:46
20 Variation 19 a 1 Clav. 00:43
21 Variation 20 a 2 Clav. 00:49
22 Variation 21 Canone alla Settima 01:43
23 Variation 22 Alla breve a 1 Clav. 00:43
24 Variation 23 a 2 Clav. 00:55
25 Variation 24 Canone all' Ottava a 1 Clav. 00:57
26 Variation 25 a 2 Clav. 06:30
27 Variation 26 a 2 Clav. 00:52
28 Variation 27 Canone alla Nona 00:50
29 Variation 28 a 2 Clav. 01:11
30 Variation 29 a 1 ovvero 2 Clav. 01:00
31 Variation 30 a 1 Clav. Quodlibet 00:48
32 Aria da capo 02:12
Dynamic Range Meter
foobar2000 1.2.6 / Dynamic Range Meter 1.1.1
log date: 2016-03-07 01:11:38
--------------------------------------------------------------------------------
Analyzed: Glenn Gould, Associated Performer, Main Artist, Piano, Producer - Johann Sebastian Bach, Composer - Samuel H. Carter, Producer / Glenn Gould : Bach: Goldberg Variations, BWV 988
--------------------------------------------------------------------------------
DR Peak RMS Duration Track
--------------------------------------------------------------------------------
DR12 -10.96 dB -29.07 dB 3:05 33-Goldberg Variations; BWV 988:Aria
DR13 -1.78 dB -16.64 dB 1:10 34-Goldberg Variations; BWV 988:Variation 1 a Clav.
DR11 -7.50 dB -21.52 dB 0:49 35-Goldberg Variations; BWV 988:Variation 2 a 1 Clav.
DR11 -6.10 dB -20.32 dB 1:31 36-Goldberg Variations; BWV 988:Variation 3 a 1 Clav. Canone all'Unisono
DR12 -2.27 dB -16.13 dB 0:50 37-Goldberg Variations; BWV 988:Variation 4 a 1 Clav.
DR10 -5.51 dB -19.38 dB 0:37 38-Goldberg Variations; BWV 988:Variation 5 a 1 ovvero 2 Clav.
DR9 -6.11 dB -20.82 dB 0:40 39-Goldberg Variations; BWV 988:Variation 6 a 1 Clav. Canone alla Seconda
DR12 -5.12 dB -22.53 dB 1:16 40-Goldberg Variations; BWV 988:Variation 7 a 1 ovvero 2 Clav. Al tempo di Giga
DR11 -1.11 dB -15.67 dB 0:54 41-Goldberg Variations; BWV 988:Variation 8 a 2 Clav.
DR11 -5.20 dB -20.51 dB 0:59 42-Goldberg Variations; BWV 988:Variation 9 a 1 Clav. Canone alla Terza
DR11 0.00 dB -15.67 dB 1:04 43-Goldberg Variations; BWV 988:Variation 10 a 1 Clav. Fughetta
DR11 -6.03 dB -19.50 dB 0:54 44-Goldberg Variations; BWV 988:Variation 11 a 2 Clav.
DR11 0.00 dB -15.07 dB 1:38 45-Goldberg Variations; BWV 988:Variation 12. Canone alla Quarta
DR12 -7.03 dB -23.86 dB 2:38 46-Goldberg Variations; BWV 988:Variation 13 a 2 Clav.
DR12 0.00 dB -15.42 dB 1:05 47-Goldberg Variations; BWV 988:Variation 14 a 2 Clav.
DR15 -5.97 dB -25.55 dB 5:02 48-Goldberg Variations; BWV 988:Variation 15 a 1 Clav. Canone alla Quinta. Andante
DR12 -0.30 dB -15.23 dB 1:38 49-Goldberg Variations; BWV 988:Variation 16 a 1 Clav. Ouverture
DR10 -8.01 dB -20.96 dB 0:54 50-Goldberg Variations; BWV 988:Variation 17 a 2 Clav.
DR11 -7.63 dB -21.72 dB 1:03 51-Goldberg Variations; BWV 988:Variation 18 a 1 Clav. Canone alla Sesta
DR11 -10.91 dB -26.46 dB 1:03 52-Goldberg Variations; BWV 988:Variation 19 a 1 Clav.
DR10 -0.78 dB -14.97 dB 0:50 53-Goldberg Variations; BWV 988:Variation 20 a 2 Clav.
DR11 -3.57 dB -17.07 dB 2:13 54-Goldberg Variations; BWV 988:Variation 21. Canone alla Settima
DR11 -1.58 dB -16.22 dB 1:03 55-Goldberg Variations; BWV 988:Variation 22 a 1 Clav. Alla breve
DR12 -2.25 dB -16.93 dB 0:58 56-Goldberg Variations; BWV 988:Variation 23 a 2 Clav.
DR12 -7.76 dB -22.43 dB 1:44 57-Goldberg Variations; BWV 988:Variation 24 a 1 Clav. Canone all'Ottava
DR15 -9.29 dB -29.49 dB 6:03 58-Goldberg Variations; BWV 988:Variation 25 a 2 Clav. Adagio
DR11 -1.37 dB -14.63 dB 0:52 59-Goldberg Variations; BWV 988:Variation 26 a 2 Clav.
DR11 -3.86 dB -19.08 dB 1:21 60-Goldberg Variations; BWV 988:Variation 27 a 2 Clav. Canone alla Nona
DR11 -6.20 dB -20.68 dB 1:03 61-Goldberg Variations; BWV 988:Variation 28 a 2 Clav.
DR11 -0.65 dB -15.23 dB 1:02 62-Goldberg Variations; BWV 988:Variation 29 a 1 ovvero 2 Clav.
DR13 0.00 dB -16.62 dB 1:30 63-Goldberg Variations; BWV 988:Variation 30 a 1 Clav. Quodlibet
DR13 -11.23 dB -30.54 dB 3:42 64-Goldberg Variations; BWV 988:Aria da capo
--------------------------------------------------------------------------------
Number of tracks: 32
Official DR value: DR12
Samplerate: 44100 Hz
Channels: 2
Bits per sample: 24
Bitrate: 1110 kbps
Codec: FLAC
================================================================================
Download
Для скачивания .torrent файлов необходима регистрация
Сайт не распространяет и не хранит электронные версии произведений, а лишь предоставляет доступ к создаваемому пользователями каталогу ссылок на торрент-файлы, которые содержат только списки хеш-сумм
[Профиль]  [ЛС] 

elenhil

Стаж: 10 лет 8 месяцев

Сообщений: 7

elenhil · 05-Июн-17 23:19 (спустя 1 день 23 часа)

[Цитировать] 

Лучше бы уточнить, что запись 1955-го года - моно (в отличие от конвертированного в стерео SACD от Sony). Хотя сам файл и двухканальный.
[Профиль]  [ЛС] 
 
Ответить
Loading...
Error