Семейка Крудс / The Croods (Кирк де Микко / Kirk De Micco, Крис Сандерс / Chris Sanders) [2013, США, мультфильм, фэнтези, комедия, приключения, семейный, BDRip-AVC] Dub + Rus, Eng, Ukr Sub + Original Eng

Страницы:  1

Ответить
Автор
Сообщение

optik.1557

RG All Films

Стаж: 8 лет 9 месяцев

Сообщений: 2536

optik.1557 · 10-Апр-17 00:52 (1 год 6 месяцев назад, ред. 07-Фев-18 17:23)

Семейка Крудс / The Croods
«Если они не эволюционируют, то станут историей»

Страна: США
Жанр: мультфильм, фэнтези, комедия, приключения, семейный
Продолжительность: 01:38:37
Год выпуска: 2013
Перевод: Профессиональный (дублированный)
Оригинальная аудиодорожка: Английский
Навигация по главам: Есть
Русские субтитры: Есть

Режиссёр: Кирк де Микко / Kirk De Micco, Крис Сандерс / Chris Sanders

Роли озвучивали: Николас Кейдж, Эмма Стоун, Райан Рейнольдс, Кэтрин Кинер, Клорис Личмен, Кларк Дьюк, Крис Сандерс, Рэнди Том

Роли дублировали: Дмитрий Назаров, Нюша Шурочкина, Егор Дружинин, Регина Щукина, Александра Назарова, Руслан Мещанов, Анна Цветкова

Описание: Землетрясение уничтожило дом доисторической семьи, и теперь Крудсам придётся искать другое пристанище. А вокруг новый и опасный мир! Им на помощь приходит молодой кочевник Малой, передовые взгляды которого наталкиваются на консервативность главы семьи Груга. Но только вместе они смогут выжить и достичь своей цели...

Доп. информация: | IMDB | КиноПоиск | Сэмпл |

Качество: BDRip-AVC
Формат: MKV
Видео: AVC, 720x306 (2.35:1), 933 Kbps, 23.976 fps, 0.177 bit/pixel.
Аудио 1: AАС-HE, 48.0 KHz, 64 Kbps, 2 channels.
Аудио 2: AАС-HE, 48.0 KHz, 64 Kbps, 2 channels.
Субтитры: Русские (Полные), Украинские (Полные), English (Full, SDH, SDH-Colored)
Скриншоты
Подробные технические данные
x264
raw [info]: 720x306p 1:1 @ 24000/1001 fps (cfr)
x264 [info]: using SAR=1/1
x264 [info]: using cpu capabilities: MMX2 SSE2Fast SSSE3 SSE4.2 AVX
x264 [info]: profile High, level 3.1
x264 [info]: frame I:1010 Avg QP:17.72 size: 37453
x264 [info]: frame P:35945 Avg QP:21.53 size: 9584
x264 [info]: frame B:104908 Avg QP:23.34 size: 2931
x264 [info]: consecutive B-frames: 3.2% 5.1% 13.2% 32.2% 19.1% 17.9% 2.2% 1.0% 1.6% 0.5% 2.5% 0.3% 0.5% 0.1% 0.2% 0.3%
x264 [info]: mb I I16..4: 8.5% 63.2% 28.3%
x264 [info]: mb P I16..4: 2.1% 14.4% 3.3% P16..4: 36.7% 20.6% 14.1% 0.0% 0.0% skip: 8.9%
x264 [info]: mb B I16..4: 0.2% 1.9% 0.5% B16..8: 35.8% 10.1% 3.1% direct: 4.2% skip:44.3% L0:42.6% L1:41.6% BI:15.8%
x264 [info]: 8x8 transform intra:72.0% inter:60.0%
x264 [info]: direct mvs spatial:97.4% temporal:2.6%
x264 [info]: coded y,uvDC,uvAC intra: 75.7% 75.8% 46.5% inter: 18.6% 14.5% 6.5%
x264 [info]: i16 v,h,dc,p: 33% 15% 8% 44%
x264 [info]: i8 v,h,dc,ddl,ddr,vr,hd,vl,hu: 17% 12% 7% 7% 11% 10% 12% 10% 14%
x264 [info]: i4 v,h,dc,ddl,ddr,vr,hd,vl,hu: 30% 7% 5% 6% 11% 10% 11% 8% 11%
x264 [info]: i8c dc,h,v,p: 32% 29% 20% 18%
x264 [info]: Weighted P-Frames: Y:8.5% UV:6.5%
x264 [info]: ref P L0: 55.2% 11.9% 11.8% 5.7% 4.1% 3.2% 2.5% 1.4% 1.2% 1.0% 0.8% 0.7% 0.6% 0.1% 0.0%
x264 [info]: ref B L0: 76.6% 11.2% 4.9% 2.2% 1.5% 1.1% 0.9% 0.5% 0.4% 0.3% 0.2% 0.1%
x264 [info]: ref B L1: 95.6% 4.4%
x264 [info]: kb/s:932.73
General
Unique ID : 253674520074596456316222325342982152206 (0xBED7EF7899D0032C9FC03BBBC574A00E)
Complete name : The Croods (2013).mkv
Format : Matroska
Format version : Version 4 / Version 2
File size : 749 MiB
Duration : 1 h 38 min
Overall bit rate : 1 061 kb/s
Movie name : Семейка Крудс / The Croods (2013)
Encoded date : UTC 2017-04-10 20:04:43
Writing application : mkvmerge v8.1.0 ('Psychedelic Postcard') 64bit
Writing library : libebml v1.3.1 + libmatroska v1.4.2
Cover : Yes
Attachments : cover.jpg
Video
ID : 1
Format : AVC
Format/Info : Advanced Video Codec
Format profile : [email protected]
Format settings, CABAC : Yes
Format settings, ReFrames : 13 frames
Codec ID : V_MPEG4/ISO/AVC
Duration : 1 h 38 min
Bit rate : 933 kb/s
Width : 720 pixels
Height : 306 pixels
Display aspect ratio : 2.35:1
Frame rate mode : Constant
Frame rate : 23.976 (24000/1001) FPS
Color space : YUV
Chroma subsampling : 4:2:0
Bit depth : 8 bits
Scan type : Progressive
Bits/(Pixel*Frame) : 0.177
Stream size : 658 MiB (88%)
Title : The Croods (2013) By optik.1557
Writing library : x264 core 148 r2744kMod b97ae06
Encoding settings : cabac=1 / ref=13 / deblock=1:-2:-1 / analyse=0x3:0x113 / me=umh / subme=10 / psy=1 / fade_compensate=0.00 / psy_rd=1.03:0.20 / mixed_ref=1 / me_range=48 / chroma_me=1 / trellis=2 / 8x8dct=1 / cqm=0 / deadzone=21,11 / fast_pskip=0 / chroma_qp_offset=-3 / threads=6 / lookahead_threads=1 / sliced_threads=0 / nr=0 / decimate=0 / interlaced=0 / bluray_compat=0 / constrained_intra=0 / bframes=15 / b_pyramid=2 / b_adapt=2 / b_bias=0 / direct=3 / weightb=1 / open_gop=0 / weightp=2 / keyint=250 / keyint_min=23 / scenecut=40 / intra_refresh=0 / rc_lookahead=60 / rc=2pass / mbtree=0 / bitrate=933 / ratetol=1.0 / qcomp=0.60 / qpmin=0 / qpmax=69 / qpstep=4 / cplxblur=20.0 / qblur=0.5 / vbv_maxrate=14000 / vbv_bufsize=14000 / nal_hrd=none / filler=0 / ip_ratio=1.40 / pb_ratio=1.30 / aq=3:0.85
Language : English
Default : Yes
Forced : No
Audio #1
ID : 2
Format : AAC
Format/Info : Advanced Audio Codec
Format profile : HE-AAC / LC
Codec ID : A_AAC
Duration : 1 h 38 min
Bit rate : 62.7 kb/s
Channel(s) : 2 channels
Channel positions : Front: L R
Sampling rate : 48.0 kHz / 24.0 kHz
Frame rate : 23.438 FPS (1024 spf)
Compression mode : Lossy
Stream size : 44.2 MiB (6%)
Title : Дубляж
Language : Russian
Default : Yes
Forced : No
Audio #2
ID : 3
Format : AAC
Format/Info : Advanced Audio Codec
Format profile : HE-AAC / LC
Codec ID : A_AAC
Duration : 1 h 38 min
Bit rate : 62.7 kb/s
Channel(s) : 2 channels
Channel positions : Front: L R
Sampling rate : 48.0 kHz / 24.0 kHz
Frame rate : 23.438 FPS (1024 spf)
Compression mode : Lossy
Stream size : 44.2 MiB (6%)
Title : Original
Language : English
Default : No
Forced : No
Text #1
ID : 4
Format : UTF-8
Codec ID : S_TEXT/UTF8
Codec ID/Info : UTF-8 Plain Text
Duration : 1 h 37 min
Bit rate : 59 b/s
Count of elements : 1023
Stream size : 42.5 KiB (0%)
Language : Russian
Default : No
Forced : No
Text #2
ID : 5
Format : UTF-8
Codec ID : S_TEXT/UTF8
Codec ID/Info : UTF-8 Plain Text
Duration : 1 h 37 min
Bit rate : 61 b/s
Count of elements : 1022
Stream size : 43.9 KiB (0%)
Language : Ukrainian
Default : No
Forced : No
Text #3
ID : 6
Format : UTF-8
Codec ID : S_TEXT/UTF8
Codec ID/Info : UTF-8 Plain Text
Duration : 1 h 28 min
Bit rate : 39 b/s
Count of elements : 1021
Stream size : 25.5 KiB (0%)
Language : English
Default : No
Forced : No
Text #4
ID : 7
Format : UTF-8
Codec ID : S_TEXT/UTF8
Codec ID/Info : UTF-8 Plain Text
Duration : 1 h 38 min
Bit rate : 49 b/s
Count of elements : 1669
Stream size : 35.7 KiB (0%)
Title : SDH
Language : English
Default : No
Forced : No
Text #5
ID : 8
Format : UTF-8
Codec ID : S_TEXT/UTF8
Codec ID/Info : UTF-8 Plain Text
Duration : 1 h 38 min
Bit rate : 78 b/s
Count of elements : 1669
Stream size : 56.5 KiB (0%)
Title : SDH-Colored
Language : English
Default : No
Forced : No
Menu
00:00:00.000 : en:Chapter 1
00:02:34.988 : en:Chapter 2
00:04:51.750 : en:Chapter 3
00:09:01.249 : en:Chapter 4
00:12:21.115 : en:Chapter 5
00:14:04.802 : en:Chapter 6
00:18:33.029 : en:Chapter 7
00:21:56.982 : en:Chapter 8
00:23:24.737 : en:Chapter 9
00:26:49.775 : en:Chapter 10
00:28:37.132 : en:Chapter 11
00:30:25.657 : en:Chapter 12
00:32:48.633 : en:Chapter 13
00:36:03.370 : en:Chapter 14
00:38:33.561 : en:Chapter 15
00:41:34.534 : en:Chapter 16
00:44:38.843 : en:Chapter 17
00:48:02.630 : en:Chapter 18
00:52:10.961 : en:Chapter 19
00:55:17.481 : en:Chapter 20
01:00:14.778 : en:Chapter 21
01:03:58.084 : en:Chapter 22
01:05:48.736 : en:Chapter 23
01:08:44.037 : en:Chapter 24
01:10:47.285 : en:Chapter 25
01:12:37.144 : en:Chapter 26
01:14:01.646 : en:Chapter 27
01:19:48.575 : en:Chapter 28
01:23:09.860 : en:Chapter 29
01:25:16.737 : en:Chapter 30
01:28:04.321 : en:Chapter 31
01:30:02.230 : en:Chapter 32
Download
Для скачивания .torrent файлов необходима регистрация
Сайт не распространяет и не хранит электронные версии произведений, а лишь предоставляет доступ к создаваемому пользователями каталогу ссылок на торрент-файлы, которые содержат только списки хеш-сумм
[Профиль]  [ЛС] 

Bastet137

Стаж: 7 лет 9 месяцев

Сообщений: 38

Bastet137 · 01-Май-17 10:53 (спустя 21 день)

[Цитировать] 

удивительно, что нет отзывов) мульт просто замечательный!
море позитива, жизнелюбия, добра...
в древнем мире... полюбому было и море экшена))) !!!
[Профиль]  [ЛС] 

Curiousman2

Стаж: 8 лет 5 месяцев

Сообщений: 291


Curiousman2 · 04-Май-17 22:25 (спустя 3 дня)

[Цитировать] 

Bastet137
Отзывов нет, потому что мульт 2013 года, все уже давно посмотрели и оставили отзывы на старых раздачах.
[Профиль]  [ЛС] 

sx118

Стаж: 1 год 8 месяцев

Сообщений: 10


sx118 · 05-Май-17 13:18 (спустя 14 часов)

[Цитировать] 

Сериал Семейка Крудс. Начало- запишите плз. озвучка СB ДУБЛЬ
http://rutracker.org/forum/viewtopic.php?t=3166673&start=1140
[Профиль]  [ЛС] 
 
Ответить
Loading...
Error