[TR24][OF] Tchaikovsky / Чайковский - Симфонии / The Symphonies & Manfred - Markevitch / Маркевич, London Symphony Orchestra - 2016 (Classical, Symphony, Romantic)

Страницы:  1

Ответить
Автор
Сообщение

hawkwood

Стаж: 11 лет 8 месяцев

Сообщений: 272

hawkwood · 01-Июл-16 14:56 (2 года 2 месяца назад, ред. 27-Июл-16 15:07)

Пётр Ильич Чайковский / Pyotr Ilyich Tchaikovsky
The Symphonies & Manfred
Игорь Маркевич / Igor Markevitch
London Symphony Orchestra

Год издания: 2016
Жанр: Classical, Orchestral, Symphony, Romantic
Лейбл: Decca
Номер по каталогу: 4830427
Продолжительность: 05:10:30
Наличие сканов: Front cover + PDF booklet

Источник: Куплено на prestoclassical.co.uk

Recording venues:
Wembley Town Hall, London, 9–12 January 1962 (No.6),
19–21 October 1963 (No.4), 3–6 March 1965 (No.3), 6–12 March 1965 (No.2),
16–19 February 1966 (No.1), 19–25 February 1966 (No.5);
Brent Town Hall, Wembley, London, 13 & 14 November 1963 (Manfred)
Контейнер: FLAC (*.flac)
Тип рипа: tracks
Разрядность: 24bit / 96kHz
Количество каналов: 2.0

Один из лучших циклов Чайковского полувековой давности в новой перегонке с оригинальных аналоговых лент. Всем бы записям середины 60-ых так звучать.
Треклист

Symphony No. 1 in G minor, Op. 13 "Зимние грёзы"
01. 1. Allegro tranquillo
02. 2. Adagio cantabile ma non tanto
03. 3. Scherzo (Allegro scherzando giocoso)
04. 4. Finale (Andante lugubre - Allegro maestoso)
Symphony No. 2 in C minor, Op. 17 "Малороссийская"
05. 1. Andante sostenuto - Allegro vivo
06. 2. Andantino marziale, quasi moderato
07. 3. Scherzo. Allegro molto vivace - Trio. L'istesso tempo
08. 4. Finale. Moderato assai - Allegro vivo - Presto
Symphony No. 3 in D, Op. 29 "Польская"
09. 1. Introduzione e Allegro
10. 2. Alla tedesca (Allegro moderato)
11. 3. Andante elegiaco
12. 4. Scherzo (Allegro vivo)
13. 5. Finale (Allegro con fuoco)
Symphony No. 4 in F minor, Op. 36
14. 1. Andante sostenuto - Moderato con anima - Moderato assai, quasi Andante - Allegro vivo
15. 2. Andantino in modo di canzone
16. 3. Scherzo. Pizzicato ostinato - Allegro
17. 4. Finale (Allegro con fuoco)
Symphony No. 5 in E minor, Op. 64
18. 1. Andante - Allegro con anima
19. 2. Andante cantabile, con alcuna licenza - Moderato con anima
20. 3. Valse (Allegro moderato)
21. 4. Finale (Andante maestoso - Allegro vivace)
Symphony No. 6 in B minor, Op. 74 "Патетическая"
22. 1. Adagio - Allegro non troppo
23. 2. Allegro con grazia
24. 3. Allegro molto vivace
25. 4. Finale (Adagio lamentoso - Andante)
Manfred Symphony, Op. 58
26. 1. Lento lugubre - Moderato con moto - Andante
27. 2. Vivace con spirito
28. 3. Andante con moto
29. 4. Allegro con fuoco
Отчеты
Лог анализа динамического диапазона
foobar2000 1.3.9 / Dynamic Range Meter 1.1.1
log date: 2016-07-01 14:28:42
--------------------------------------------------------------------------------
Analyzed: Igor Markevitch, London Symphony Orchestra / Tchaikovsky: The Symphonies & Manfred
--------------------------------------------------------------------------------
DR Peak RMS Duration Track
--------------------------------------------------------------------------------
DR11 -0.83 dB -17.65 dB 11:03 01-Symphony No.1 in G minor, Op.13 'Winter Reveries': 1. Allegro tranquillo
DR13 -4.29 dB -23.28 dB 10:33 02-Symphony No.1 in G minor, Op.13 'Winter Reveries': 2. Adagio cantabile ma non tanto
DR15 -2.94 dB -23.28 dB 7:42 03-Symphony No.1 in G minor, Op.13 'Winter Reveries': 3. Scherzo (Allegro scherzando giocoso)
DR12 -0.10 dB -16.97 dB 12:19 04-Symphony No.1 in G minor, Op.13 'Winter Reveries': 4. Finale (Andante lugubre - Allegro maestoso)
DR13 -1.04 dB -18.91 dB 12:08 05-Symphony No.2 in C minor, Op.17 'Little Russian': 1. Andante sostenuto - Allegro vivo
DR15 -4.31 dB -25.70 dB 7:52 06-Symphony No.2 in C minor, Op.17 'Little Russian': 2. Andantino marziale, quasi moderato
DR14 -2.38 dB -21.70 dB 5:22 07-Symphony No.2 in C minor, Op.17 'Little Russian': 3. Scherzo. Allegro molto vivace - Trio. L'istesso tempo
DR11 -0.61 dB -17.25 dB 10:41 08-Symphony No.2 in C minor, Op.17 'Little Russian': 4. Finale. Moderato assai - Allegro vivo - Presto
DR12 -0.58 dB -18.27 dB 15:27 09-Symphony No.3 in D, Op.29 'Polish': 1. Introduzione e Allegro
DR13 -8.02 dB -26.05 dB 5:52 10-Symphony No.3 in D, Op.29 'Polish': 2. Alla tedesca (Allegro moderato)
DR14 -4.75 dB -25.06 dB 11:47 11-Symphony No.3 in D, Op.29 'Polish': 3. Andante elegiaco
DR13 -6.47 dB -25.90 dB 5:41 12-Symphony No.3 in D, Op.29 'Polish': 4. Scherzo (Allegro vivo)
DR11 -1.65 dB -16.40 dB 8:29 13-Symphony No.3 in D, Op.29 'Polish': 5. Finale (Allegro con fuoco)
DR12 -0.57 dB -17.43 dB 18:39 14-Symphony No.4 in F minor, Op.36: 1. Andante sostenuto - Moderato con anima - Moderato assai, quasi Andante - Allegro vivo
DR13 -2.24 dB -21.48 dB 9:39 15-Symphony No.4 in F minor, Op.36: 2. Andantino in modo di canzone
DR15 -3.25 dB -24.22 dB 5:31 16-Symphony No.4 in F minor, Op.36: 3. Scherzo. Pizzicato ostinato - Allegro
DR12 -0.30 dB -16.18 dB 8:51 17-Symphony No.4 in F minor, Op.36: 4. Finale (Allegro con fuoco)
DR13 -1.25 dB -19.68 dB 12:37 18-Symphony No.5 in E minor, Op.64: 1. Andante - Allegro con anima
DR14 -0.41 dB -20.52 dB 12:26 19-Symphony No.5 in E minor, Op.64: 2. Andante cantabile, con alcuna licenza - Moderato con anima
DR15 -2.67 dB -26.52 dB 5:31 20-Symphony No.5 in E minor, Op.64: 3. Valse (Allegro moderato)
DR12 -0.30 dB -17.05 dB 13:02 21-Symphony No.5 in E minor, Op.64: 4. Finale (Andante maestoso - Allegro vivace)
DR11 -4.16 dB -21.80 dB 18:46 22-Symphony No.6 in B minor, Op.74 'Pathétique': 1. Adagio - Allegro non troppo
DR12 -7.01 dB -23.67 dB 7:35 23-Symphony No.6 in B minor, Op.74 'Pathétique': 2. Allegro con grazia
DR11 -3.86 dB -18.89 dB 9:26 24-Symphony No.6 in B minor, Op.74 'Pathétique': 3. Allegro molto vivace
DR11 -3.46 dB -21.75 dB 9:51 25-Symphony No.6 in B minor, Op.74 'Pathétique': 4. Finale (Adagio lamentoso - Andante)
DR13 -1.76 dB -19.89 dB 16:58 26-Manfred Symphony, Op.58: 1. Lento lugubre - Moderato con moto - Andante
DR13 -4.30 dB -23.51 dB 8:47 27-Manfred Symphony, Op.58: 2. Vivace con spirito
DR12 -2.18 dB -19.67 dB 10:07 28-Manfred Symphony, Op.58: 3. Andante con moto
DR13 -0.10 dB -17.88 dB 17:52 29-Manfred Symphony, Op.58: 4. Allegro con fuoco
--------------------------------------------------------------------------------
Number of tracks: 29
Official DR value: DR13
Samplerate: 96000 Hz
Channels: 2
Bits per sample: 24
Bitrate: 2752 kbps
Codec: FLAC
================================================================================
Скриншот уровней и спектров
Скриншот АЧХ
Download
Для скачивания .torrent файлов необходима регистрация
Сайт не распространяет и не хранит электронные версии произведений, а лишь предоставляет доступ к создаваемому пользователями каталогу ссылок на торрент-файлы, которые содержат только списки хеш-сумм
[Профиль]  [ЛС] 

vau_home_track

Стаж: 3 года 6 месяцев

Сообщений: 39


vau_home_track · 11-Июл-16 22:14 (спустя 10 дней)

[Цитировать] 

Здравствуйте, Hawkwood!
Просто нет слов, как прекрасно! Огромное вам спасибо!
[Профиль]  [ЛС] 

el coronel

VIP (Заслуженный)

Стаж: 8 лет 8 месяцев

Сообщений: 4597

el coronel · 16-Июл-16 15:55 (спустя 4 дня)

[Цитировать] 

hawkwood
Спасибо.
Жаль, что Маркевич никогда не записывал (и не исполнял, похоже) оркестровые сюиты Чайковского.
[Профиль]  [ЛС] 

ifenixxz

Стаж: 1 год 10 месяцев

Сообщений: 245


ifenixxz · 27-Фев-17 17:08 (спустя 7 месяцев)

[Цитировать] 

hawkwood
Волшебное исполнение и запись, обязательно приобрету. мое почтение за релиз и Ваш бесценный труд.
[Профиль]  [ЛС] 
 
Ответить
Loading...
Error