[TR24][OF] Jean Sibelius - The Seven Symphonies (Lorin Maazel & Wiener Philharmoniker) - 2015 (Classical, Symphony)

Страницы:  1

Ответить
Автор
Сообщение

hawkwood

Стаж: 11 лет 8 месяцев

Сообщений: 272

hawkwood · 02-Янв-17 13:27 (1 год 8 месяцев назад, ред. 05-Янв-17 03:07)

Jean Sibelius
The Seven Symphonies
Lorin Maazel
Wiener Philharmoniker

Год издания: 2015
Жанр: Classical, Symphony
Лейбл: Decca
Номер по каталогу: 0289 478 8541 2
Источник релиза: Qobuz
Продолжительность: 04:05:37
Наличие сканов: Обложка, буклет
Где и когда записано:
Sofiensaal, Vienna, 27 & 28 March 1963 (Karelia Suite),
16–20 September 1963 (No. 1),
June 1964 (No. 2),
15–28 February 1966 (No. 7),
March 1966 (No. 5),
March 1968 (Nos. 3 & 6),
20 March–16 April 1968 (No. 4; Tapiola)

Контейнер: WAVE (*.flac)
Тип рипа: tracks
Разрядность: 24bit / 96 kHz
Количество каналов: 2.0

Свежий ремастер примечательного цикла Сибелиуса. Крутой звук Декки 60-ых. Мощное исполнение молодого Маазеля.
Купил не сам, добыл в надежном месте.
Треклист
Symphony No. 1 in E minor, Op. 39
01. I. Andante, ma non troppo – Allegro energico
02. II. Andante (ma non troppo lento)
03. III. Scherzo (Allegro)
04. IV. Finale (Quasi una fantasia)
Symphony No. 2 in D major, Op. 43
05. I. Allegretto – Poco allegro – Tranquillo, ma poco a poco ravvivando il tempo al allegro
06. II. Tempo andante, ma rubato – Andante sostenuto
07. III. Vivacissimo – Lento e suave – Largamente
08. IV. Finale (Allegro moderato)
Symphony No. 3 in C major, Op. 52
09. I. Allegro moderato
10. II. Andantino con moto, quasi allegretto
11. III. Moderato – Allegro (ma non tanto)
Symphony No. 4 in A minor, Op. 63
12. I. Tempo molto moderato, quasi adagio
13. II. Allegro molto vivace
14. III. Il tempo largo
15. IV. Allegro
Symphony No. 5 in E♭ major, Op. 82
16. I. Tempo molto moderato – Largamente – Allegro moderato
17. II. Andante mosso, quasi allegretto
18. III. Allegro molto
Symphony No. 6 in D minor, Op. 104
19. I. Allegro molto moderato
20. II. Allegretto moderato
21. III. Poco vivace
22. IV. Allegro molto
Symphony No. 7 in C major, Op. 105
23. Symphony No. 7 in C major, Op. 105
Karelia Suite, Op. 11
24. I. Intermezzo (Moderato)
25. II. Ballade (Tempo di menuetto)
26. III. Alla marcia (Moderato)
Tapiola, Op. 112
27. Tapiola, Op. 112
Лог динамического диапазона
foobar2000 1.3.12 / Dynamic Range Meter 1.1.1
log date: 2017-01-02 12:41:40
--------------------------------------------------------------------------------
Analyzed: Lorin Maazel & Wiener Philharmoniker / Sibelius: The Seven Symphonies
--------------------------------------------------------------------------------
DR Peak RMS Duration Track
--------------------------------------------------------------------------------
DR13 -0.30 dB -20.41 dB 10:48 01-Symphony No. 1 in E minor, Op. 39: I. Andante, ma non troppo – Allegro energico
DR14 -0.66 dB -20.51 dB 8:36 02-Symphony No. 1 in E minor, Op. 39: II. Andante (ma non troppo lento)
DR14 -2.49 dB -22.60 dB 4:57 03-Symphony No. 1 in E minor, Op. 39: III. Scherzo (Allegro)
DR15 -0.59 dB -20.04 dB 11:55 04-Symphony No. 1 in E minor, Op. 39: IV. Finale (Quasi una fantasia)
DR14 -0.52 dB -19.70 dB 9:50 05-Symphony No. 2 in D major, Op. 43: I. Allegretto – Poco allegro – Tranquillo, ma poco a poco ravvivando il tempo al allegro
DR14 -0.30 dB -19.30 dB 13:06 06-Symphony No. 2 in D major, Op. 43: II. Tempo andante, ma rubato – Andante sostenuto
DR12 -2.08 dB -20.90 dB 6:06 07-Symphony No. 2 in D major, Op. 43: III. Vivacissimo – Lento e suave – Largamente
DR12 -0.37 dB -17.32 dB 14:17 08-Symphony No. 2 in D major, Op. 43: IV. Finale (Allegro moderato)
DR13 -2.31 dB -20.11 dB 9:27 09-Symphony No. 3 in C major, Op. 52: I. Allegro moderato
DR13 -9.98 dB -28.09 dB 8:16 10-Symphony No. 3 in C major, Op. 52: II. Andantino con moto, quasi allegretto
DR12 -1.64 dB -19.60 dB 8:47 11-Symphony No. 3 in C major, Op. 52: III. Moderato – Allegro (ma non tanto)
DR13 -2.97 dB -22.20 dB 10:20 12-Symphony No. 4 in A minor, Op. 63: I. Tempo molto moderato, quasi adagio
DR13 -6.13 dB -25.36 dB 4:05 13-Symphony No. 4 in A minor, Op. 63: II. Allegro molto vivace
DR14 -2.73 dB -23.34 dB 9:06 14-Symphony No. 4 in A minor, Op. 63: III. Il tempo largo
DR13 -0.74 dB -19.70 dB 9:17 15-Symphony No. 4 in A minor, Op. 63: IV. Allegro
DR13 -1.05 dB -20.43 dB 12:06 16-Symphony No. 5 in E♭ major, Op. 82: I. Tempo molto moderato – Largamente – Allegro moderato
DR12 -3.05 dB -21.60 dB 7:14 17-Symphony No. 5 in E♭ major, Op. 82: II. Andante mosso, quasi allegretto
DR14 -0.30 dB -18.86 dB 8:12 18-Symphony No. 5 in E♭ major, Op. 82: III. Allegro molto
DR15 -1.20 dB -22.14 dB 8:32 19-Symphony No. 6 in D minor, Op. 104: I. Allegro molto moderato
DR14 -3.68 dB -24.61 dB 4:07 20-Symphony No. 6 in D minor, Op. 104: II. Allegretto moderato
DR12 -0.30 dB -19.36 dB 3:06 21-Symphony No. 6 in D minor, Op. 104: III. Poco vivace
DR12 -0.58 dB -18.79 dB 8:46 22-Symphony No. 6 in D minor, Op. 104: IV. Allegro molto
DR13 -0.30 dB -18.34 dB 21:24 23-Symphony No. 7 in C major, Op. 105
DR14 -1.28 dB -21.60 dB 3:40 24-Karelia Suite, Op. 11: I. Intermezzo (Moderato)
DR14 -7.47 dB -26.30 dB 6:30 25-Karelia Suite, Op. 11: II. Ballade (Tempo di menuetto)
DR12 -2.70 dB -19.83 dB 4:14 26-Karelia Suite, Op. 11: III. Alla marcia (Moderato)
DR14 -0.30 dB -19.94 dB 19:05 27-Tapiola, Op. 112
--------------------------------------------------------------------------------
Number of tracks: 27
Official DR value: DR13
Samplerate: 96000 Hz
Channels: 2
Bits per sample: 24
Bitrate: 2585 kbps
Codec: FLAC
================================================================================
Графики по симфониям
No. 1:

No. 2:

No. 3:

No. 4:

No. 5:

No. 6:

No. 7:

Karelia:

Tapiola:
Download
Для скачивания .torrent файлов необходима регистрация
Сайт не распространяет и не хранит электронные версии произведений, а лишь предоставляет доступ к создаваемому пользователями каталогу ссылок на торрент-файлы, которые содержат только списки хеш-сумм
[Профиль]  [ЛС] 

PrimusAsus

Стаж: 4 года 3 месяца

Сообщений: 164

PrimusAsus · 02-Янв-17 13:56 (спустя 29 мин.)

[Цитировать] 

Добытчик ты наш), дай Бог тебе успехов на этом поприще!) Спасибо.
[Профиль]  [ЛС] 

hawkwood

Стаж: 11 лет 8 месяцев

Сообщений: 272

hawkwood · 02-Янв-17 14:34 (спустя 38 мин.)

[Цитировать] 

У меня добытого на все новогодние праздники заготовлено в избытке!
[Профиль]  [ЛС] 

ifenixxz

Стаж: 1 год 10 месяцев

Сообщений: 248


ifenixxz · 02-Янв-17 19:22 (спустя 4 часа)

[Цитировать] 

Браво! Огромное спасибо за то, что поделились этой жемчужиной.
[Профиль]  [ЛС] 

firewheel77703

Стаж: 9 лет 1 месяц

Сообщений: 86

firewheel77703 · 03-Янв-17 11:47 (спустя 16 часов, ред. 03-Янв-17 11:47)

[Цитировать] 

Жаль только что это ахрвиные года, когда качество звуко-записывающей аппаратуры и кабелей было не таким совершенным как сейчас. (Магнитная лента за 50 лет разлогается, саморазмогничивается и т.д. необратимые физико-химические процессы )
[Профиль]  [ЛС] 

hawkwood

Стаж: 11 лет 8 месяцев

Сообщений: 272

hawkwood · 03-Янв-17 14:47 (спустя 2 часа 59 мин., ред. 03-Янв-17 14:47)

[Цитировать] 

firewheel77703 Да, хотелось бы качество получше, но меня в целом не обламывают записи второй половины 50-ых и позднее. А некоторые и вообще шикарные и лучше многих современных (в серии Living Stereo можно найти, например, Берлиоз от Мюнша). А вот первая половина 50-ых и раньше — вот тут я слушать уже не могу, и весь Фуртванглер, например, проходит мимо меня.
[Профиль]  [ЛС] 

yahennadiy

Стаж: 5 лет 6 месяцев

Сообщений: 19


yahennadiy · 03-Янв-17 17:44 (спустя 2 часа 57 мин.)

[Цитировать] 

hawkwood, спасибо. Великолепное издание!
[Профиль]  [ЛС] 

Aidavbar

Стаж: 7 лет 6 месяцев

Сообщений: 98


Aidavbar · 12-Фев-17 12:39 (спустя 1 месяц 8 дней)

[Цитировать] 

Пару недель назад, совершенно случайно, наткнулся в сети на упоминание этого сборника.
Поначалу не хотелось расстраиваться неудачей поиска и все же решился - спасибо, hawkwood!
[Профиль]  [ЛС] 
 
Ответить
Loading...
Error