BBC: Планета Земля (11 серий из 11) / Planet Earth (Аластер Фозергилл / Alastair Fothergill) [2006, Документальный,5xDVD5]

Страницы :   Пред.  1, 2

Ответить
Автор
Сообщение

dimedrol7

Стаж: 12 лет

Сообщений: 25

dimedrol7 · 16-Окт-16 20:45 (2 года 1 месяц назад, ред. 17-Окт-16 22:35)

[Цитировать] 

Соотношение сторон 16:9
mediainfo
скрытый текст
$ mediainfo D1/VIDEO_TS/VTS_03_1.VOB
General
Complete name : VTS_03_1.VOB
Format : MPEG-PS
File size : 1 024 MiB
Duration : 26mn 27s
Overall bit rate mode : Variable
Overall bit rate : 5 413 Kbps
Video
ID : 224 (0xE0)
Format : MPEG Video
Format version : Version 2
Format profile : [email protected]
Format settings, BVOP : Yes
Format settings, Matrix : Custom
Duration : 26mn 27s
Bit rate mode : Variable
Bit rate : 4 921 Kbps
Maximum bit rate : 8 500 Kbps
Width : 720 pixels
Height : 576 pixels
Display aspect ratio : 16:9
Frame rate : 25.000 fps
Standard : PAL
Color space : YUV
Chroma subsampling : 4:2:0
Bit depth : 8 bits
Scan type : Interlaced
Scan order : Bottom Field First
Compression mode : Lossy
Bits/(Pixel*Frame) : 0.475
Stream size : 931 MiB (91%)
Audio #1
ID : 189 (0xBD)-128 (0x80)
Format : AC-3
Format/Info : Audio Coding 3
Mode extension : CM (complete main)
Format settings, Endianness : Big
Muxing mode : DVD-Video
Duration : 26mn 26s
Bit rate mode : Constant
Bit rate : 192 Kbps
Channel(s) : 2 channels
Channel positions : Front: L R
Sampling rate : 48.0 KHz
Bit depth : 16 bits
Compression mode : Lossy
Stream size : 36.3 MiB (4%)
Audio #2
ID : 189 (0xBD)-129 (0x81)
Format : AC-3
Format/Info : Audio Coding 3
Mode extension : CM (complete main)
Format settings, Endianness : Big
Muxing mode : DVD-Video
Duration : 26mn 26s
Bit rate mode : Constant
Bit rate : 192 Kbps
Channel(s) : 2 channels
Channel positions : Front: L R
Sampling rate : 48.0 KHz
Bit depth : 16 bits
Compression mode : Lossy
Stream size : 36.3 MiB (4%)
Text #1
ID : 189 (0xBD)-32 (0x20)
Format : RLE
Format/Info : Run-length encoding
Muxing mode : DVD-Video
Text #2
ID : 189 (0xBD)-33 (0x21)
Format : RLE
Format/Info : Run-length encoding
Muxing mode : DVD-Video
Menu
[Профиль]  [ЛС] 

Strage_SPB

Стаж: 8 лет 3 месяца

Сообщений: 9


Strage_SPB · 10-Ноя-16 22:54 (спустя 25 дней)

[Цитировать] 

Вописании раздачи не указано, есть ли оригинальная аудиодорожка.
[Профиль]  [ЛС] 

kamijiro_rinji

Стаж: 9 лет 3 месяца

Сообщений: 1

kamijiro_rinji · 03-Янв-17 14:58 (спустя 1 месяц 22 дня, ред. 03-Янв-17 14:58)

[Цитировать] 

Встаньте на раздачу кто-нибудь, пожалуйста
UPD: спасибо большое!!!
[Профиль]  [ЛС] 

МультиЁж

Стаж: 10 лет 2 месяца

Сообщений: 143

МультиЁж · 26-Янв-17 01:03 (спустя 22 дня, ред. 26-Янв-17 01:03)

[Цитировать] 

realwhite писал(а):
57512125Не записывается 5-й диск
Пишет Файл 'VTS_07_1.VOB' не найден.
Подскажите как поправить, очень нужны все фильмы на dvd5
у меня была такая же проблема. нашел на другом сайте, скачал. записал 5 диск без проблем
[Профиль]  [ЛС] 
 
Ответить
Loading...
Error