Эми / Amy (Азиф Кападиа / Asif Kapadia) [2015, Документальный, HDTVRip 720p] MVO (Первый Канал)

Страницы:  1

Ответить
Автор
Сообщение

plarin

Top Seed 06* 1280r

Стаж: 10 лет 4 месяца

Сообщений: 4092

plarin · 06-Мар-16 09:17 (2 года 8 месяцев назад, ред. 06-Мар-16 17:08)

Эми / Amy
Дата/Год выпуска: 2015
Страна: Великобритания | США | On The Corner Films | Universal Music
Жанр: Документальный
Продолжительность: 1:59:56
Перевод: Профессиональный (многоголосый закадровый) | "Первый Канал"
Режиссер: Азиф Кападиа / Asif Kapadia
Описание: Документальный фильм лауреата премии BAFTA Азифа Кападиа проливает свет на мир, в котором жила Эми Уайнхаус, через автобиографические тексты ее песен, видео из личных архивов семьи и друзей, а также интервью близких и коллег. На протяжении долгого времени велись поиски и сбор уникального материала для картины. В фильме прозвучат неизвестные ранее треки и появятся кадры с пленок, на которых юная Эми в окружении друзей исполняет свои первые песни. Режиссер собрал около сотни аудиоинтервью в ближайшем кругу певицы.

Автор рипа: lrn
Автор записи: Alexin29
Сэмпл: sendfile
Тип релиза: HDTVRip 720p
Контейнер: MKV
Видео: 1280x688 (1.85:1), 25,000 fps, H264, ~4000 kbps avg, ~0.182 bit/pixel
Аудио: 48 kHz, AC3 Dolby Digital, 3/2 (L,C,R,l,r) + LFE ch, ~384.00 kbps avg
MediaInfo
General
Unique ID : 255028566197009807840966527916906809155 (0xBFDCB71965F2F0BEAF3B616DBC3A8743)
Complete name : E:\uTorrent.Temp\Temp\Amy.2015.HDTVRip.720p.x264-RUS-lrn.mkv
Format : Matroska
Format version : Version 4 / Version 2
File size : 3.67 GiB
Duration : 1h 59mn
Overall bit rate : 4 385 Kbps
Movie name : Amy.2015.HDTVRip.720p.x264-RUS-lrn
Encoded date : UTC 2010-02-22 21:41:31
Writing application : mkvmerge v5.9.0 ('On The Loose') built on Dec 9 2012 15:37:01
Writing library : libebml v1.3.0 + libmatroska v1.4.0
Video
ID : 1
Format : AVC
Format/Info : Advanced Video Codec
Format profile : [email protected]
Format settings, CABAC : Yes
Format settings, ReFrames : 8 frames
Codec ID : V_MPEG4/ISO/AVC
Duration : 1h 59mn
Bit rate : 4 000 Kbps
Width : 1 280 pixels
Height : 688 pixels
Display aspect ratio : 1.85:1
Frame rate mode : Constant
Frame rate : 25.000 fps
Color space : YUV
Chroma subsampling : 4:2:0
Bit depth : 8 bits
Scan type : Progressive
Bits/(Pixel*Frame) : 0.182
Stream size : 3.28 GiB (89%)
Writing library : x264 core 148 r2638 7599210
Encoding settings : cabac=1 / ref=8 / deblock=1:-3:-3 / analyse=0x3:0x133 / me=umh / subme=9 / psy=1 / psy_rd=1.00:0.00 / mixed_ref=1 / me_range=32 / chroma_me=1 / trellis=2 / 8x8dct=1 / cqm=0 / deadzone=21,11 / fast_pskip=1 / chroma_qp_offset=-2 / threads=12 / lookahead_threads=2 / sliced_threads=0 / nr=0 / decimate=1 / interlaced=0 / bluray_compat=0 / constrained_intra=0 / bframes=8 / b_pyramid=2 / b_adapt=2 / b_bias=0 / direct=3 / weightb=1 / open_gop=0 / weightp=2 / keyint=250 / keyint_min=25 / scenecut=40 / intra_refresh=0 / rc_lookahead=50 / rc=2pass / mbtree=1 / bitrate=4000 / ratetol=1.0 / qcomp=0.60 / qpmin=0 / qpmax=69 / qpstep=4 / cplxblur=20.0 / qblur=0.5 / vbv_maxrate=62500 / vbv_bufsize=78125 / nal_hrd=none / filler=0 / ip_ratio=1.40 / aq=1:1.00
Default : Yes
Forced : No
Statistics Tags Issue : mkvmerge v8.5.2 ('Crosses') 32bit 2016-03-06 02:03:38 / mkvmerge v5.9.0 ('On The Loose') built on Dec 9 2012 15:37:01 2010-02-22 21:41:31
FromStats_BitRate : 3999678
FromStats_Duration : 01:59:56.640000000
FromStats_FrameCount : 179916
FromStats_StreamSize : 3598031034
Audio
ID : 2
Format : AC-3
Format/Info : Audio Coding 3
Mode extension : CM (complete main)
Format settings, Endianness : Big
Codec ID : A_AC3
Duration : 1h 59mn
Bit rate mode : Constant
Bit rate : 384 Kbps
Channel(s) : 6 channels
Channel positions : Front: L C R, Side: L R, LFE
Sampling rate : 48.0 KHz
Frame rate : 31.250 fps (1536 spf)
Compression mode : Lossy
Stream size : 329 MiB (9%)
Language : English
Default : Yes
Forced : No
x264 log
raw [info]: 1280x688p 1:1 @ 25/1 fps (cfr)
x264 [info]: using SAR=1/1
x264 [info]: using cpu capabilities: MMX2 SSE2Fast SSSE3 SSE4.2 AVX
x264 [info]: profile High, level 4.1
x264 [info]: frame I:1015 Avg QP:14.21 size:102936
x264 [info]: frame P:49765 Avg QP:17.45 size: 36412
x264 [info]: frame B:129136 Avg QP:19.43 size: 13021
x264 [info]: consecutive B-frames: 4.4% 6.1% 6.2% 56.7% 9.3% 11.0% 2.3% 3.2% 0.7%
x264 [info]: mb I I16..4: 7.0% 80.8% 12.2%
x264 [info]: mb P I16..4: 2.8% 20.9% 1.4% P16..4: 37.3% 16.8% 9.6% 0.3% 0.1% skip:10.8%
x264 [info]: mb B I16..4: 0.3% 2.5% 0.1% B16..8: 32.4% 9.5% 2.0% direct: 8.8% skip:44.3% L0:42.2% L1:45.3% BI:12.5%
x264 [info]: 8x8 transform intra:83.6% inter:70.1%
x264 [info]: direct mvs spatial:98.1% temporal:1.9%
x264 [info]: coded y,uvDC,uvAC intra: 79.0% 81.3% 46.3% inter: 29.0% 33.1% 4.1%
x264 [info]: i16 v,h,dc,p: 34% 16% 7% 43%
x264 [info]: i8 v,h,dc,ddl,ddr,vr,hd,vl,hu: 14% 11% 7% 8% 11% 13% 11% 12% 13%
x264 [info]: i4 v,h,dc,ddl,ddr,vr,hd,vl,hu: 15% 11% 5% 8% 13% 14% 12% 10% 11%
x264 [info]: i8c dc,h,v,p: 39% 24% 20% 17%
x264 [info]: Weighted P-Frames: Y:6.3% UV:2.9%
x264 [info]: ref P L0: 52.3% 10.2% 15.4% 6.7% 4.9% 4.1% 3.4% 2.6% 0.4% 0.0%
x264 [info]: ref B L0: 79.9% 9.8% 4.4% 2.3% 1.8% 1.1% 0.6%
x264 [info]: ref B L1: 95.9% 4.1%
x264 [info]: kb/s:3999.68
encoded 179916 frames, 15.06 fps, 3999.68 kb/s
Треклист
01. Opening
02. Stronger Than Me
03. Poetic Finale
04. What Is It About Men (Live at the North Sea Jazz Festival)
05. Walk
06. Some Unholy War (Down Tempo)
07. Holiday Texts
08. Kidnapping Amy
09. Like Smoke (Demo)
10. Tears Dry on Their Own
11. Seperação Fotos
12. The Name of the Wave
13. Back to Black (A capella / Album Medley)
14. Cynthia
15. Rehab (Live on Jools Holland)
16. In the Studio
17. We're Still Friends (Live at The Union Chapel)
18. Amy Lives
19. Love Is a Losing Game (Live at the Mercury Prize Awards)
20. Arrested
21. Body and Soul
22. Amy Forever
23. Valerie (BBC Radio 1 Live Lounge)
Скриншоты
Download
Для скачивания .torrent файлов необходима регистрация
Сайт не распространяет и не хранит электронные версии произведений, а лишь предоставляет доступ к создаваемому пользователями каталогу ссылок на торрент-файлы, которые содержат только списки хеш-сумм
[Профиль]  [ЛС] 

v__8

Top Loader 01* 100GB

Стаж: 10 лет 2 месяца

Сообщений: 524

v__8 · 06-Мар-16 22:55 (спустя 13 часов, ред. 06-Мар-16 22:55)

[Цитировать] 

А звук отдельно возможно?
Хочу в Блю-рэй его вставить.
[Профиль]  [ЛС] 

Oleg_dhs

Стаж: 8 лет 1 месяц

Сообщений: 1

Oleg_dhs · 29-Сен-16 20:49 (спустя 6 месяцев)

[Цитировать] 

ужасная озвучка, отвратительный перевод песен, невозможно смотреть
[Профиль]  [ЛС] 

e.a.pedash

Стаж: 5 лет 1 месяц

Сообщений: 152

e.a.pedash · 10-Окт-16 14:37 (спустя 10 дней)

[Цитировать] 

Продолжительность фильма - 127 минут. В раздаче - 100. Вопрос: куда делись ещё 7 минут???
[Профиль]  [ЛС] 
 
Ответить
Loading...
Error