Kylie Minogue - Kylie Christmas (Deluxe Edition CD+DVD) [2015, Pop, DVD5]

Страницы:  1

Ответить
Автор
Сообщение

usеnеt

Стаж: 3 года 2 месяца

Сообщений: 168

usеnеt · 23-Ноя-15 06:25 (2 года 11 месяцев назад, ред. 24-Ноя-15 06:44)

Kylie Minogue / Kylie Christmas (Deluxe Edition CD+DVD)
Страна: Australia
Жанр: Pop
Продолжительность: 00:18:50
Год выпуска: 2015 г.
Лейбл: Firewheel LLP & Kimberly Ltd.
Номер по каталогу: 0825646004881
Наличие сканов в содержимом раздачи: в раздаче CD-Audio
CD-Audio album

01. It’s Most Wonderful Time of the Year
02. 2000 Miles
03. Christmas Isn’t Christmas ‘Til You Get Here
04. 100 Degrees (with Dannii Minogue)
05. I’m Gonna Be Warm This Winter
06. Oh Santa
Разбивка на главы по трекам: есть
Качество : DVD5
Формат: DVD video
Видео кодек: MPEG2
Аудио кодек: PCM
Видео: MPEG-2, 720*480 (16:9), 8 200 Kbps, 29.970 fps
Аудио: LinearPCM, 1 536 Kbps, 48.0 KHz, 2 channels
DVD-info
Title: Kylie Minogue - Kylie Christmas [Deluxe] (2015) DVD5
Size: 1.49 Gb ( 1 565 928,00 KBytes ) - DVD-5
Enabled regions: 1, 2, 3, 4, 5, 6, 7, 8
VTS_01 :
Play Length: 00:18:50+00:00:14
Video: NTSC 16:9 (720x480) VBR, Auto Letterboxed
Audio:
English (LinearPCM, 2 ch)
Media-info
General
Complete name : VTS_01_1.VOB
Format : MPEG-PS
File size : 1 024 MiB
Duration : 1mn 2s
Overall bit rate mode : Variable
Overall bit rate : 138 Mbps
Video
ID : 224 (0xE0)
Format : MPEG Video
Format version : Version 2
Format profile : [email protected]
Format settings, BVOP : Yes
Format settings, Matrix : Default
Format settings, GOP : M=3, N=15
Duration : 1mn 2s
Bit rate mode : Variable
Bit rate : 133 Mbps
Maximum bit rate : 8 200 Kbps
Width : 720 pixels
Height : 480 pixels
Display aspect ratio : 16:9
Frame rate : 29.970 fps
Standard : NTSC
Color space : YUV
Chroma subsampling : 4:2:0
Bit depth : 8 bits
Scan type : Progressive
Compression mode : Lossy
Bits/(Pixel*Frame) : 12.886
Time code of first frame : 00:00:00;00
Time code source : Group of pictures header
GOP, Open/Closed : Open
GOP, Open/Closed of first frame : Closed
Stream size : 992 MiB (97%)
Audio
ID : 189 (0xBD)-160 (0xA0)
Format : PCM
Format settings, Endianness : Big
Format settings, Sign : Signed
Muxing mode : DVD-Video
Duration : 1mn 2s
Bit rate mode : Constant
Bit rate : 1 536 Kbps
Channel(s) : 2 channels
Sampling rate : 48.0 KHz
Bit depth : 16 bits
Stream size : 11.4 MiB (1%)
Скриншоты меню
Скриншоты
http://www.kylie.com/
httр://www.youtube.com/kylieminogue
https://en.wikipedia.org/wiki/Kylie_Christmas
Download
Для скачивания .torrent файлов необходима регистрация
Сайт не распространяет и не хранит электронные версии произведений, а лишь предоставляет доступ к создаваемому пользователями каталогу ссылок на торрент-файлы, которые содержат только списки хеш-сумм
[Профиль]  [ЛС] 

ConstantineBaidan

Стаж: 3 года 7 месяцев

Сообщений: 228

ConstantineBaidan · 23-Ноя-15 09:45 (спустя 3 часа)

[Цитировать] 

О, здорово.
Надо учиться у людей как они с душой делают свою работу.
Всех с праздничным сезоном.
[Профиль]  [ЛС] 

lko123

Стаж: 5 лет 5 месяцев

Сообщений: 16


lko123 · 23-Ноя-15 13:59 (спустя 4 часа)

[Цитировать] 

Спасибо, а раздача будет?
[Профиль]  [ЛС] 

no psevdo

Стаж: 10 лет

Сообщений: 167


no psevdo · 23-Ноя-15 20:37 (спустя 6 часов)

[Цитировать] 

Редко у кого получаются хорошие рождественские альбомы. Скушно было даже у Мерайи Кери и Энни Леннокс.
А вот у Кайли очень задорно, с настроением. Молодец!
[Профиль]  [ЛС] 

Dmitry PD

Стаж: 4 года 3 месяца

Сообщений: 233


Dmitry PD · 14-Апр-16 16:30 (спустя 4 месяца 20 дней)

[Цитировать] 

У Майкла Бубле еще отличный Рождественский альбом получился! Спасибо за раздачу!
[Профиль]  [ЛС] 
 
Ответить
Loading...
Error