Группа "The Who". История Альбома "Tommy" / The Who: The Making of Tommy (Мартин Р. Смит / Martin R. Smith) [2013, Документальный, HDTVRip 720p] MVO (Эй Би Видео)

Страницы:  1

Ответить
Автор
Сообщение

plarin

Top Seed 06* 1280r

Стаж: 10 лет 4 месяца

Сообщений: 4092

plarin · 08-Ноя-15 09:33 (3 года назад)

Группа "The Who". История Альбома "Tommy" / The Who: The Making of Tommy
Год выпуска: 2013
Страна: Великобритания
Студия: Eagle Rock Productions
Жанр: Документальный
Продолжительность: 0:59:47
Перевод: Профессиональный (многоголосый закадровый) | "Эй Би Видео" по заказу "Первого Канала"
Режиссер: Мартин Р. Смит / Martin R. Smith
Описание: Уникальный документальный фильм, созданный при всесторонней поддержке группы, рассказывает о том, как "The Who" трудились над созданием первой рок-оперы, и как успех изменил их жизнь. В 1968 году британская рок-группа «The Who» находилась в поисках хита, который вознес бы ее на вершину музыкального Олимпа. На тот момент у рокеров было всего лишь три сингла, и им требовалась хорошая свежая идея, способная не дать группе развалиться.

Автор рипа: lrn
Автор записи: Alexin29
Сэмпл: sendfile
качество: HDTVRip 720p
формат: MKV
Видео: 1280x720 (16:9), 25,000 fps, H264, ~4000 kbps avg, ~0.174 bit/pixel
Аудио: 48 kHz, AC3 Dolby Digital, 3/2 (L,C,R,l,r) + LFE ch, ~384.00 kbps avg
MediaInfo
General
Unique ID : 206125945366152855957588827469080774317 (0x9B1269BD9E063C5B9F91018D71C146AD)
Complete name : E:\uTorrent.Temp\Temp\The.Who.The.Making.of.Tommy.2013.HDTV.720p.x264-RUS-lrn.mkv
Format : Matroska
Format version : Version 4 / Version 2
File size : 1.83 GiB
Duration : 59mn 47s
Overall bit rate : 4 386 Kbps
Movie name : The.Who.The.Making.of.Tommy.2013.HDTV.720p.x264-RUS-lrn
Encoded date : UTC 2010-02-22 21:41:31
Writing application : mkvmerge v5.9.0 ('On The Loose') built on Dec 9 2012 15:37:01
Writing library : libebml v1.3.0 + libmatroska v1.4.0
DURATION : 00:59:47.720000000
NUMBER_OF_FRAMES : 89693
NUMBER_OF_BYTES : 1793906070
_STATISTICS_WRITING_APP : mkvmerge v7.7.0 ('Six Voices') 32bit built on Feb 28 2015 23:23:00
_STATISTICS_WRITING_DATE_UT : 2015-11-07 16:51:41
_STATISTICS_TAGS : BPS DURATION NUMBER_OF_FRAMES NUMBER_OF_BYTES
Video
ID : 1
Format : AVC
Format/Info : Advanced Video Codec
Format profile : [email protected]
Format settings, CABAC : Yes
Format settings, ReFrames : 8 frames
Codec ID : V_MPEG4/ISO/AVC
Duration : 59mn 47s
Bit rate : 4 000 Kbps
Width : 1 280 pixels
Height : 720 pixels
Display aspect ratio : 16:9
Frame rate mode : Constant
Frame rate : 25.000 fps
Color space : YUV
Chroma subsampling : 4:2:0
Bit depth : 8 bits
Scan type : Progressive
Bits/(Pixel*Frame) : 0.174
Stream size : 1.64 GiB (89%)
Writing library : x264 core 146 r2538 121396c
Encoding settings : cabac=1 / ref=8 / deblock=1:-3:-3 / analyse=0x3:0x133 / me=umh / subme=9 / psy=1 / psy_rd=1.00:0.00 / mixed_ref=1 / me_range=32 / chroma_me=1 / trellis=2 / 8x8dct=1 / cqm=0 / deadzone=21,11 / fast_pskip=1 / chroma_qp_offset=-2 / threads=12 / lookahead_threads=2 / sliced_threads=0 / nr=0 / decimate=1 / interlaced=0 / bluray_compat=0 / constrained_intra=0 / bframes=8 / b_pyramid=2 / b_adapt=2 / b_bias=0 / direct=3 / weightb=1 / open_gop=0 / weightp=2 / keyint=250 / keyint_min=25 / scenecut=40 / intra_refresh=0 / rc_lookahead=50 / rc=2pass / mbtree=1 / bitrate=4000 / ratetol=1.0 / qcomp=0.60 / qpmin=0 / qpmax=69 / qpstep=4 / cplxblur=20.0 / qblur=0.5 / vbv_maxrate=62500 / vbv_bufsize=78125 / nal_hrd=none / filler=0 / ip_ratio=1.40 / aq=1:1.00
Default : Yes
Forced : No
Audio
ID : 2
Format : AC-3
Format/Info : Audio Coding 3
Mode extension : CM (complete main)
Format settings, Endianness : Big
Codec ID : A_AC3
Duration : 59mn 47s
Bit rate mode : Constant
Bit rate : 384 Kbps
Channel(s) : 6 channels
Channel positions : Front: L C R, Side: L R, LFE
Sampling rate : 48.0 KHz
Compression mode : Lossy
Stream size : 164 MiB (9%)
Language : Russian
Default : Yes
Forced : No
x264 log
raw [info]: 1280x720p 1:1 @ 25/1 fps (cfr)
x264 [info]: using SAR=1/1
x264 [info]: using cpu capabilities: MMX2 SSE2Fast SSSE3 SSE4.2 AVX
x264 [info]: profile High, level 4.1
x264 [info]: frame I:612 Avg QP:12.23 size:114483
x264 [info]: frame P:22748 Avg QP:15.63 size: 40953
x264 [info]: frame B:66333 Avg QP:18.34 size: 11943
x264 [info]: consecutive B-frames: 1.9% 3.8% 4.9% 66.5% 9.5% 10.0% 1.2% 1.8% 0.4%
x264 [info]: mb I I16..4: 11.2% 72.4% 16.3%
x264 [info]: mb P I16..4: 1.1% 10.4% 1.0% P16..4: 36.7% 21.7% 13.5% 0.8% 0.3% skip:14.6%
x264 [info]: mb B I16..4: 0.1% 1.2% 0.1% B16..8: 32.3% 9.5% 2.2% direct: 6.7% skip:47.9% L0:40.8% L1:44.3% BI:15.0%
x264 [info]: 8x8 transform intra:82.1% inter:60.8%
x264 [info]: direct mvs spatial:96.5% temporal:3.5%
x264 [info]: coded y,uvDC,uvAC intra: 84.5% 59.9% 42.2% inter: 24.6% 18.4% 2.5%
x264 [info]: i16 v,h,dc,p: 52% 17% 7% 24%
x264 [info]: i8 v,h,dc,ddl,ddr,vr,hd,vl,hu: 14% 10% 8% 8% 12% 14% 11% 12% 12%
x264 [info]: i4 v,h,dc,ddl,ddr,vr,hd,vl,hu: 15% 10% 5% 8% 13% 15% 11% 11% 11%
x264 [info]: i8c dc,h,v,p: 54% 18% 16% 12%
x264 [info]: Weighted P-Frames: Y:4.0% UV:1.3%
x264 [info]: ref P L0: 53.6% 8.7% 15.8% 6.3% 5.0% 4.1% 3.6% 2.7% 0.3% 0.0%
x264 [info]: ref B L0: 80.3% 10.2% 4.2% 2.0% 1.6% 1.0% 0.6%
x264 [info]: ref B L1: 95.7% 4.3%
x264 [info]: kb/s:4000.10
encoded 89693 frames, 15.69 fps, 4000.10 kb/s
Скриншоты
Download
Для скачивания .torrent файлов необходима регистрация
Сайт не распространяет и не хранит электронные версии произведений, а лишь предоставляет доступ к создаваемому пользователями каталогу ссылок на торрент-файлы, которые содержат только списки хеш-сумм
[Профиль]  [ЛС] 

Redneb Migarbi Patso

Стаж: 3 года 8 месяцев

Сообщений: 462

Redneb Migarbi Patso · 08-Ноя-15 11:35 (спустя 2 часа 2 мин.)

[Цитировать] 

Цитата:
На тот момент у рокеров было всего лишь три сингла, и им требовалась хорошая свежая идея...
Не правильно выразились... Всего было три АЛЬБОМА, а вот синглов было шестнадцать. Наберите в википедии - Дискография The Who:
https://ru.wikipedia.org/wiki/%D0%94%D0%B8%D1%81%D0%BA%D0%BE%D0%B3%D1%80%D0%B0%D1...0.B3.D0.BB.D1.8B
[Профиль]  [ЛС] 
 
Ответить
Loading...
Error