Воспоминания о художнике. Роберт Де Ниро-старший / Remembering the Artist: Robert De Niro, Sr. (Гита Гандбир / Geeta Gandbhir, Перри Пельтц / Perri Peltz) [2014, документальный, искусство, HDTV 1080i] DVO (Пифагор)

Страницы:  1

Ответить
Автор
Сообщение

ralf124c41+

Top Best

Стаж: 8 лет 10 месяцев

Сообщений: 11613

ralf124c41+ · 23-Ноя-14 18:52 (3 года 11 месяцев назад, ред. 23-Ноя-14 19:08)

Воспоминания о художнике. Роберт Де Ниро-старший
Remembering the Artist: Robert De Niro, Sr.
Год выпуска: 2014
Страна: США
Студия: HBO
Жанр: документальный, искусство
Продолжительность: 00:39:06
Перевод: Профессиональный (двухголосый закадровый)
Доп. инфо о переводе: Студия "Пифагор" по заказу Amedia TV
Русские субтитры: нетРежиссер: Гита Гандбир / Geeta Gandbhir, Перри Пельтц / Perri Peltz
В ролях: Роберт Де Ниро ст., Роберт Де Ниро, Дрена Де Ниро
Описание: Роберт Де Ниро представил документальный фильм "Воспоминания о художнике", посвящённый отцу актёра. Роберт Де Ниро-старший покинул семью после осознания своей гомосексуальности.
Сценарий фильма Де Ниро написал, прочитав дневники своего отца - художника-экспрессиониста Роберта Де Ниро-старшего. Отец актёра, итальянец-эмигрант во втором поколении, работал с абстрактной живописью в 40-х и 50-х годах. Он был популярен в художественных кругах и пользовался протекцией знаменитой собирательницы живописи Пегги Гуггенхейм. В 1942 году он въехал в мастерскую в творческом районе Нью-Йорка вместе со своей пассией - студенткой и художницей Вирджинией Эдмирал, которая работала машинисткой у Генри Миллера. Вскоре у пары родился названный в честь отца сын Роберт.
Де Ниро-старший, как и многие другие абстрактные художники-экспрессионисты, стал выставляться реже в 1960-х годах, когда в моду вошёл поп-арт. Тогда живописец уехал во Францию, где прожил несколько лет. Впоследствии его стал финансово поддерживать сын, начавший сниматься в кассовых фильмах. Де Ниро-старший скончался в 1993 году от рака.
На презентации Роберт Де Ниро-младший рассказал The Huffington Post, что сделал фильм для памяти отца и использовал в картине практически все доступные видеоматериалы о нём. Фильмом Де Ниро хотел познакомить своих шестерых детей - четверо из которых были рождены после смерти деда - с жизнью и творчеством Де Ниро-старшего. (Михаил Смирнов)
Доп. информация: IPTV (Amedia Premium HD). На территории РФ возрастное ограничение 18+.
Номинация на Гран-при за лучший короткометражный фильм МКФ в Сандансе 2014.

Тип релиза: HDTV 1080i
Контейнер: MKV
Видео: AVC (H.264), 1920x1080 (16:9), 25 fps, ~6500 kbps avg
Аудио 1: AAC, 2 ch, 48 kHz, Bit rate mode: Variable - русский
Аудио 2: AAC, 2 ch, 48 kHz, Bit rate mode: Variable - английский
MediaInfo
Общее
Уникальный идентификатор : 185271553357447918524161571495425091025 (0x8B6200D4B130B86A902F08B8201425D1)
Полное имя : E:\My Torrents 2\[apreder]Remembering_the_Artist_Robert_De_Niro_Sr.(2014)DVB.mkv
Формат : Matroska
Версия формата : Version 2
Размер файла : 1,84 Гбайт
Продолжительность : 39 м.
Общий поток : 6734 Кбит/сек
Дата кодирования : UTC 2014-11-23 15:27:10
Программа кодирования : mkvmerge v7.3.0 ('Nouages') 64bit built on Oct 22 2014 18:53:34
Библиотека кодирования : libebml v1.3.0 + libmatroska v1.4.1
Видео
Идентификатор : 1
Формат : AVC
Формат/Информация : Advanced Video Codec
Профиль формата : [email protected]
Параметр CABAC формата : Да
Параметр ReFrames формата : 4 кадра
Идентификатор кодека : V_MPEG4/ISO/AVC
Продолжительность : 39 м.
Битрейт : 6216 Кбит/сек
Ширина : 1920 пикселей
Высота : 1080 пикселей
Соотношение сторон : 16:9
Режим частоты кадров : Постоянный
Частота кадров : 25,000 кадров/сек
Стандарт вещания : Component
Цветовое пространство : YUV
Субдискретизация насыщенности : 4:2:0
Битовая глубина : 8 бит
Тип развёртки : MBAFF
Бит/(Пиксели*Кадры) : 0.120
Размер потока : 1,70 Гбайт (92%)
Default : Да
Forced : Нет
Основные цвета : BT.709
Характеристики трансфера : BT.709
Коэффициенты матрицы : BT.709
Аудио #1
Идентификатор : 2
Формат : MPEG Audio
Версия формата : Version 1
Профиль формата : Layer 2
Режим : Joint stereo
Расширение режима : Intensity Stereo + MS Stereo
Идентификатор кодека : A_MPEG/L2
Идентификатор кодека/Подсказка : MP2
Продолжительность : 39 м.
Вид битрейта : Постоянный
Битрейт : 192 Кбит/сек
Каналы : 2 канала
Частота : 48,0 КГц
Метод сжатия : С потерями
Задержка видео : -14 мс.
Размер потока : 53,7 Мбайт (3%)
Язык : Russian
Default : Да
Forced : Нет
Аудио #2
Идентификатор : 3
Формат : MPEG Audio
Версия формата : Version 1
Профиль формата : Layer 2
Режим : Joint stereo
Расширение режима : Intensity Stereo + MS Stereo
Идентификатор кодека : A_MPEG/L2
Идентификатор кодека/Подсказка : MP2
Продолжительность : 39 м.
Вид битрейта : Постоянный
Битрейт : 192 Кбит/сек
Каналы : 2 канала
Частота : 48,0 КГц
Метод сжатия : С потерями
Задержка видео : -14 мс.
Размер потока : 53,7 Мбайт (3%)
Язык : English
Default : Нет
Forced : Нет
Скриншоты
Резервные скриншоты

[1'934]
Download
Для скачивания .torrent файлов необходима регистрация
Сайт не распространяет и не хранит электронные версии произведений, а лишь предоставляет доступ к создаваемому пользователями каталогу ссылок на торрент-файлы, которые содержат только списки хеш-сумм
[Профиль]  [ЛС] 

Alisa8585

Стаж: 7 лет 7 месяцев

Сообщений: 30

Alisa8585 · 17-Июн-15 19:23 (спустя 6 месяцев)

[Цитировать] 

Ближе к концу фильма видео глючит (спотыкается) и какие-то помехи или что-то похожее Хотелось бы этот фильм без таких дефектов... Странно что до меня никто об этом не писал...или это только у меня такое!?
[Профиль]  [ЛС] 

Abcent2000

Стаж: 5 лет

Сообщений: 75

Abcent2000 · 29-Июл-15 19:25 (спустя 1 месяц 12 дней, ред. 29-Июл-15 22:23)

[Цитировать] 

ralf124c41+
Alisa8585 В конце фильма действительно наблюдаются кратковременные глюки в звуке и в картинке...
[Профиль]  [ЛС] 
 
Ответить
Loading...
Error