Львица в изгнании / Lioness in Exile (Ким Вольхатер / Kim Wolhuter) [2012, Документальны, HDTV 1080i]

Страницы:  1

Ответить
Автор
Сообщение

LeXa 84

Top Seed 02* 80r

Стаж: 10 лет 7 месяцев

Сообщений: 219

LeXa 84 · 25-Июн-13 18:37 (5 лет 4 месяца назад)

Львица в изгнании
Lioness in Exile


Год выпуска: 2012
Страна: США
Жанр: Документальный
Продолжительность: 00:44:58
Перевод: Студийный (одноголосый закадровый)
Доп. инфо о переводе: Игорь Тарадайкин / АРК·ТВ
Русские субтитры: нет
Режиссер: Ким Вольхатер / Kim Wolhuter
Описание: Маньяри, королева своего прайда, идет на необычный шаг, когда забирает своих детенышей из клана, где они были в безопасности.
Тип релиза: HDTV 1080i
Контейнер: TS
Видео кодек: H.264
Аудио кодек: MP2
Видео: MPEG4 Video (H.264), 1920x1080, 16:9, ~8475 kbps, 25 fps
Аудио: MP2, 192 kbps, 48 kHz, 2 ch
MediaInfo
Код:
General
ID                                       : 1 (0x1)
Complete name                            : \\...\Львица в изгнании\Lioness in Exile (Rus-MP2, HDTV-1080i, h264) [2012].ts
Format                                   : MPEG-TS
File size                                : 2.87 GiB
Duration                                 : 44mn 58s
Overall bit rate mode                    : Variable
Overall bit rate                         : 9 120 Kbps
Video
ID                                       : 321 (0x141)
Menu ID                                  : 1 (0x1)
Format                                   : AVC
Format/Info                              : Advanced Video Codec
Format profile                           : [email protected]
Format settings, CABAC                   : Yes
Format settings, ReFrames                : 3 frames
Codec ID                                 : 27
Duration                                 : 44mn 58s
Bit rate                                 : 8 475 Kbps
Width                                    : 1 920 pixels
Height                                   : 1 080 pixels
Display aspect ratio                     : 16:9
Frame rate                               : 25.000 fps
Standard                                 : Component
Color space                              : YUV
Chroma subsampling                       : 4:2:0
Bit depth                                : 8 bits
Scan type                                : Interlaced
Scan order                               : Top Field First
Bits/(Pixel*Frame)                       : 0.163
Stream size                              : 2.66 GiB (93%)
Color primaries                          : BT.709
Transfer characteristics                 : BT.709
Matrix coefficients                      : BT.709
Audio
ID                                       : 401 (0x191)
Menu ID                                  : 1 (0x1)
Format                                   : MPEG Audio
Format version                           : Version 1
Format profile                           : Layer 2
Codec ID                                 : 3
Duration                                 : 44mn 58s
Bit rate mode                            : Constant
Bit rate                                 : 192 Kbps
Channel(s)                               : 2 channels
Sampling rate                            : 48.0 KHz
Compression mode                         : Lossy
Stream size                              : 61.8 MiB (2%)
Language                                 : English
Скриншоты
Download
Для скачивания .torrent файлов необходима регистрация
Сайт не распространяет и не хранит электронные версии произведений, а лишь предоставляет доступ к создаваемому пользователями каталогу ссылок на торрент-файлы, которые содержат только списки хеш-сумм
[Профиль]  [ЛС] 

вечимзук

Стаж: 5 лет 11 месяцев

Сообщений: 48


вечимзук · 28-Июн-13 15:08 (спустя 2 дня 20 часов)

[Цитировать] 

tiger210969 писал(а):
59865841LeXa 84
Большое спасибо!
за что за этот фильм с выдуманным сюжетом-неочем
[Профиль]  [ЛС] 
 
Ответить
Loading...
Error