Как вырастить планету / How To Grow a Planet (3 серии) (Nick Shoolingin-Jordan, Nigel Walk) [2012, Документалистика, HDRip] MVO + ENG

Страницы:  1

Ответить
Автор
Сообщение

andre90

Стаж: 9 лет 7 месяцев

Сообщений: 506

andre90 · 08-Дек-12 10:03 (5 лет 11 месяцев назад, ред. 11-Фев-13 13:39)

Как вырастить планету / How To Grow a Planet

Страна: Великобритания
Жанр: Документалистика
Год выпуска: 2012
Продолжительность: 3x ~00:49:00
Перевод: Профессиональный (многоголосый, закадровый)
Субтитры: нет
Режиссер: Nick Shoolingin-Jordan, Nigel Walk
В ролях: Iain Stewart
Описание: В этом сериале профессор Ийан Стюарт рассказывает нам о новой, увлекательной версии истории формирования биогенеза, которую прошла наша планета. Показывая нам, сколь велики изменения, которые были вызваны, прежде всего обитателями растительного царства. Его рассказ повествует о древней эволюции представителей флоры и фауны Земли.

Качество видео: HDRip [BDRip 720p HDClub]
Формат видео: AVI
Видео: 720x400 (1.85:1), 25 кадра/сек, ~ 1700 Кбит/сек, ~ 0.237 bit/pixel
Аудио 1: AC-3, 192 Кбит/сек, 2 каналa, 48,0 КГц | MVO
Аудио 2: AC-3, 192 Кбит/сек, 2 каналa, 48,0 КГц | ENG




Episode 1: Life from Light / Жизнь из света
Продолжительность: 00:49:35
MediaInfo
Код:
General
Complete name                            : D:\ФИЛЬМЫ\How.To.Grow.a.Planet.2012.HDRip\How.To.Grow.a.Planet.E1.Life.from.Light.avi
Format                                   : AVI
Format/Info                              : Audio Video Interleave
File size                                : 745 MiB
Duration                                 : 49mn 34s
Overall bit rate                         : 2 101 Kbps
Writing application                      : VirtualDubMod 1.5.10.2 (build 2540/release)
Writing library                          : VirtualDubMod build 2540/release
Video
ID                                       : 0
Format                                   : MPEG-4 Visual
Format profile                           : Advanced [email protected]
Format settings, BVOP                    : 1
Format settings, QPel                    : No
Format settings, GMC                     : No warppoints
Format settings, Matrix                  : Custom
Codec ID                                 : XVID
Codec ID/Hint                            : XviD
Duration                                 : 49mn 34s
Bit rate                                 : 1 703 Kbps
Width                                    : 720 pixels
Height                                   : 400 pixels
Display aspect ratio                     : 16:9
Frame rate                               : 25.000 fps
Color space                              : YUV
Chroma subsampling                       : 4:2:0
Bit depth                                : 8 bits
Scan type                                : Progressive
Compression mode                         : Lossy
Bits/(Pixel*Frame)                       : 0.237
Stream size                              : 604 MiB (81%)
Writing library                          : XviD 1.2.1 (UTC 2008-12-04)
Audio #1
ID                                       : 1
Format                                   : AC-3
Format/Info                              : Audio Coding 3
Mode extension                           : CM (complete main)
Format settings, Endianness              : Big
Codec ID                                 : 2000
Duration                                 : 49mn 34s
Bit rate mode                            : Constant
Bit rate                                 : 192 Kbps
Channel(s)                               : 2 channels
Channel positions                        : Front: L R
Sampling rate                            : 48.0 KHz
Bit depth                                : 16 bits
Compression mode                         : Lossy
Stream size                              : 68.1 MiB (9%)
Alignment                                : Aligned on interleaves
Interleave, duration                     : 40 ms (1.00 video frame)
Interleave, preload duration             : 512 ms
Title                                    : Многоголосый закадровый
Audio #2
ID                                       : 2
Format                                   : AC-3
Format/Info                              : Audio Coding 3
Mode extension                           : CM (complete main)
Format settings, Endianness              : Big
Codec ID                                 : 2000
Duration                                 : 49mn 34s
Bit rate mode                            : Constant
Bit rate                                 : 192 Kbps
Channel(s)                               : 2 channels
Channel positions                        : Front: L R
Sampling rate                            : 48.0 KHz
Bit depth                                : 16 bits
Compression mode                         : Lossy
Stream size                              : 68.1 MiB (9%)
Alignment                                : Split accross interleaves
Interleave, duration                     : 40 ms (1.00 video frame)
Interleave, preload duration             : 500 ms
Title                                    : English
Скриншоты
Episode 2: The Power of Flowers / Сила цветов
Продолжительность: 00:48:56
MediaInfo
Код:
General
Complete name                            : D:\ФИЛЬМЫ\How.To.Grow.a.Planet.2012.HDRip\How.To.Grow.a.Planet.E2.The.Power.of.Flowers.avi
Format                                   : AVI
Format/Info                              : Audio Video Interleave
File size                                : 745 MiB
Duration                                 : 48mn 56s
Overall bit rate                         : 2 128 Kbps
Writing application                      : VirtualDubMod 1.5.10.2 (build 2540/release)
Writing library                          : VirtualDubMod build 2540/release
Video
ID                                       : 0
Format                                   : MPEG-4 Visual
Format profile                           : Advanced [email protected]
Format settings, BVOP                    : 1
Format settings, QPel                    : No
Format settings, GMC                     : No warppoints
Format settings, Matrix                  : Custom
Codec ID                                 : XVID
Codec ID/Hint                            : XviD
Duration                                 : 48mn 56s
Bit rate                                 : 1 730 Kbps
Width                                    : 720 pixels
Height                                   : 400 pixels
Display aspect ratio                     : 16:9
Frame rate                               : 25.000 fps
Color space                              : YUV
Chroma subsampling                       : 4:2:0
Bit depth                                : 8 bits
Scan type                                : Progressive
Compression mode                         : Lossy
Bits/(Pixel*Frame)                       : 0.240
Stream size                              : 605 MiB (81%)
Writing library                          : XviD 1.2.1 (UTC 2008-12-04)
Audio #1
ID                                       : 1
Format                                   : AC-3
Format/Info                              : Audio Coding 3
Mode extension                           : CM (complete main)
Format settings, Endianness              : Big
Codec ID                                 : 2000
Duration                                 : 48mn 55s
Bit rate mode                            : Constant
Bit rate                                 : 192 Kbps
Channel(s)                               : 2 channels
Channel positions                        : Front: L R
Sampling rate                            : 48.0 KHz
Bit depth                                : 16 bits
Compression mode                         : Lossy
Stream size                              : 67.2 MiB (9%)
Alignment                                : Aligned on interleaves
Interleave, duration                     : 40 ms (1.00 video frame)
Interleave, preload duration             : 512 ms
Title                                    : Многоголосый закадровый
Audio #2
ID                                       : 2
Format                                   : AC-3
Format/Info                              : Audio Coding 3
Mode extension                           : CM (complete main)
Format settings, Endianness              : Big
Codec ID                                 : 2000
Duration                                 : 48mn 56s
Bit rate mode                            : Constant
Bit rate                                 : 192 Kbps
Channel(s)                               : 2 channels
Channel positions                        : Front: L R
Sampling rate                            : 48.0 KHz
Bit depth                                : 16 bits
Compression mode                         : Lossy
Stream size                              : 67.2 MiB (9%)
Alignment                                : Split accross interleaves
Interleave, duration                     : 40 ms (1.00 video frame)
Interleave, preload duration             : 500 ms
Title                                    : English
Скриншоты
Episode 3: The Challenger / Бросившие вызов
Продолжительность: 00:48:57
MediaInfo
Код:
General
Complete name                            : D:\ФИЛЬМЫ\How.To.Grow.a.Planet.2012.HDRip\How.To.Grow.a.Planet.E3.The.Challenger.avi
Format                                   : AVI
Format/Info                              : Audio Video Interleave
File size                                : 745 MiB
Duration                                 : 48mn 57s
Overall bit rate                         : 2 127 Kbps
Writing application                      : VirtualDubMod 1.5.10.2 (build 2540/release)
Writing library                          : VirtualDubMod build 2540/release
Video
ID                                       : 0
Format                                   : MPEG-4 Visual
Format profile                           : Advanced [email protected]
Format settings, BVOP                    : 1
Format settings, QPel                    : No
Format settings, GMC                     : No warppoints
Format settings, Matrix                  : Custom
Codec ID                                 : XVID
Codec ID/Hint                            : XviD
Duration                                 : 48mn 57s
Bit rate                                 : 1 728 Kbps
Width                                    : 720 pixels
Height                                   : 400 pixels
Display aspect ratio                     : 16:9
Frame rate                               : 25.000 fps
Color space                              : YUV
Chroma subsampling                       : 4:2:0
Bit depth                                : 8 bits
Scan type                                : Progressive
Compression mode                         : Lossy
Bits/(Pixel*Frame)                       : 0.240
Stream size                              : 605 MiB (81%)
Writing library                          : XviD 1.2.1 (UTC 2008-12-04)
Audio #1
ID                                       : 1
Format                                   : AC-3
Format/Info                              : Audio Coding 3
Mode extension                           : CM (complete main)
Format settings, Endianness              : Big
Codec ID                                 : 2000
Duration                                 : 48mn 57s
Bit rate mode                            : Constant
Bit rate                                 : 192 Kbps
Channel(s)                               : 2 channels
Channel positions                        : Front: L R
Sampling rate                            : 48.0 KHz
Bit depth                                : 16 bits
Compression mode                         : Lossy
Stream size                              : 67.2 MiB (9%)
Alignment                                : Aligned on interleaves
Interleave, duration                     : 40 ms (1.00 video frame)
Interleave, preload duration             : 512 ms
Title                                    : Многоголосый закадровый
Audio #2
ID                                       : 2
Format                                   : AC-3
Format/Info                              : Audio Coding 3
Mode extension                           : CM (complete main)
Format settings, Endianness              : Big
Codec ID                                 : 2000
Duration                                 : 48mn 57s
Bit rate mode                            : Constant
Bit rate                                 : 192 Kbps
Channel(s)                               : 2 channels
Channel positions                        : Front: L R
Sampling rate                            : 48.0 KHz
Bit depth                                : 16 bits
Compression mode                         : Lossy
Stream size                              : 67.2 MiB (9%)
Alignment                                : Split accross interleaves
Interleave, duration                     : 40 ms (1.00 video frame)
Interleave, preload duration             : 500 ms
Title                                    : English
Скриншоты
Download
Для скачивания .torrent файлов необходима регистрация
Сайт не распространяет и не хранит электронные версии произведений, а лишь предоставляет доступ к создаваемому пользователями каталогу ссылок на торрент-файлы, которые содержат только списки хеш-сумм
[Профиль]  [ЛС] 

twdragon

Top Seed 03* 160r

Стаж: 10 лет 7 месяцев

Сообщений: 804

twdragon · 08-Дек-12 14:53 (спустя 4 часа)

[Цитировать] 

> В соответствии с п. 5 Правил документального раздела
Цитата:
Обязательно указывайте, есть ли в Вашей раздаче перевод и субтитры. Напомним, раздачи без перевода запрещены.
Для раздач иностранного происхождения обязательно предоставление сэмпла для проверки наличия/отсутствия перевода.
Сделайте, пожалуйста, сэмпл.
Как сделать сэмпл видео
[Профиль]  [ЛС] 

andre90

Стаж: 9 лет 7 месяцев

Сообщений: 506

andre90 · 08-Дек-12 16:03 (спустя 1 час 9 мин., ред. 08-Дек-12 16:03)

[Цитировать] 

Zomg1914
мокрый снег валит, инет лагает
twdragon
добавил семпл
[Профиль]  [ЛС] 

BigPuppy

Стаж: 9 лет 7 месяцев

Сообщений: 18

BigPuppy · 09-Дек-12 07:53 (спустя 15 часов)

[Цитировать] 

Никого не видно на раздаче...
Живые есть?
[Профиль]  [ЛС] 

fyunt

Стаж: 11 лет 3 месяца

Сообщений: 982

fyunt · 11-Фев-13 10:09 (спустя 2 месяца 2 дня)

[Цитировать] 

Отличный фильм.
Оригинальная и остроумная версия, ко всему прочему ещё и не лишённая логики.
Спасибо!
...
ps
Формат видео: MKV - не пугайте людей, в раздаче AVI, и очень приличного качества.
[Профиль]  [ЛС] 
 
Ответить
Loading...
Error