Кто хочет стать миллионером / Выпуск 170 (02.12.2012) [2012, Интеллектуальное шоу, SATRip]

Страницы:  1

Ответить
Автор
Сообщение

ArmiNcha78

Стаж: 8 лет 2 месяца

Сообщений: 681


ArmiNcha78 · 02-Дек-12 12:38 (5 лет 11 месяцев назад, ред. 09-Дек-12 11:13)

Кто хочет стать миллионером / Выпуск 170 (02.12.2012)
Год выпуска: 2012
Страна: Россия
Жанр: Интеллектуальное шоу
Продолжительность: 00:50:49
Перевод: Не требуется
Описание: Первый выпуск телеигры «Who wants to be a millionaire?» вышел в эфир 4 сентября 1998 года на британском канале ITV1. Создателем викторины является компания Celador. Игра сразу же завоевала популярность и стала завоёвывать верхние строчки в рейтингах. В настоящий момент лицензией на производство игры владеют более 100 стран мира.
В России премьера игры состоялась 1 октября 1999 года на канале НТВ. Игра называлась «О, Счастливчик!», а ведущим программы стал Дмитрий Дибров. Программа стала настолько популярной, что была удостоена главной телевизионной награды России — премии «ТЭФИ».
В 2001 году программа «переехала» на канал ОРТ (ныне - Первый канал) и сменила название и ведущего. Теперь игра стала называться так же, как и в остальных странах, где она выходит в эфир, — «Кто хочет стать миллионером?», а ведущим игры стал пародист Максим Галкин.
В сентябре 2008 года появилась информация о том, что Максим Галкин уходит с Первого канала и «Миллионер» закрывается. Осенью 2008 на сайте Первого канала проводился опрос среди зрителей на нового ведущего. Первое место занял Иван Ургант, но руководство Первого канала решило, что Ургант ведёт четыре проекта Первого канала, и право ведущего отдали Дмитрию Диброву.
Качество: SATRip
Формат: AVI
Видео кодек: DivX
Аудио кодек: MP3
Видео: 720x400 (1.80:1), 25 fps, DivX Codec 6.8.5/6.9.1 ~1501 kbps avg
Аудио: 48 kHz, MPEG Layer 3, 2 ch, ~128.00 kbps avg
Раздача группы:
MI
Общее
Полное имя : D:\Раздачи\Kto.Hochet.Stat.Millionerom.02.12.2012.SATRip.avi
Формат : AVI
Формат/Информация : Audio Video Interleave
Размер файла : 596 Мбайт
Продолжительность : 50 м.
Общий поток : 1640 Кбит/сек
Программа кодирования : VirtualDubMod 1.5.10.3 (build 2550/release)
Библиотека кодирования : VirtualDub build 29808/release
Видео
Идентификатор : 0
Формат : MPEG-4 Visual
Параметр BVOP формата : 1
Параметр QPel формата : Нет
Параметр GMC формата : Без точки перехода
Параметр матрицы формата : Default (H.263)
Режим смешивания : Сжатый битовый поток
Идентификатор кодека : DX50
Идентификатор кодека/Подсказка : DivX 5
Продолжительность : 50 м.
Битрейт : 1502 Кбит/сек
Ширина : 720 пикселей
Высота : 400 пикселей
Соотношение сторон : 16:9
Частота кадров : 25,000 кадров/сек
Цветовое пространство : YUV
Субдискретизация насыщенности : 4:2:0
Битовая глубина : 8 бит
Тип развёртки : Прогрессивная
Метод сжатия : С потерями
Бит/(Пиксели*Кадры) : 0.209
Размер потока : 546 Мбайт (92%)
Библиотека кодирования : DivX 6.8.5 (UTC 2009-08-20)
Аудио
Идентификатор : 1
Формат : MPEG Audio
Версия формата : Version 1
Профиль формата : Layer 3
Режим : Joint stereo
Расширение режима : MS Stereo
Идентификатор кодека : 55
Идентификатор кодека/Подсказка : MP3
Продолжительность : 50 м.
Вид битрейта : Постоянный
Битрейт : 128 Кбит/сек
Каналы : 2 канала
Частота : 48,0 КГц
Метод сжатия : С потерями
Задержка видео : 8 мс.
Размер потока : 46,5 Мбайт (8%)
Выравнивание : Разделение по промежуткам
Продолжительность промежутка : 40 мс. (1,00 видеокадр)
Время предзагрузки промежутка : 500 мс.
Скринлист+Скриншоты
Download
Для скачивания .torrent файлов необходима регистрация
Сайт не распространяет и не хранит электронные версии произведений, а лишь предоставляет доступ к создаваемому пользователями каталогу ссылок на торрент-файлы, которые содержат только списки хеш-сумм
[Профиль]  [ЛС] 

Я_люблю_людей

Стаж: 8 лет 8 месяцев

Сообщений: 4


Я_люблю_людей · 05-Дек-12 15:41 (спустя 3 дня)

[Цитировать] 

Мне одному кажется что название топика перепутано? Написано "Выпуск 169 (25.11.2012)", а должно быть "Выпуск 170 (02.12.2012)".
[Профиль]  [ЛС] 
 
Ответить
Loading...
Error